&title=傷つき傷つけ痛くて辛い
&artist=トゲナシトゲアリ
&first=0.04
&des=Defiance.
&lv_5=13+
&inote_1=
&inote_5=(150)
{1},
{2}1,1,1,1,{8}1/8h[32:1],,,7h[32:1],2,,6h[32:1],,3,5h[32:1],,,4h[32:1],,,,7/2h[32:1],,,3h[32:1],6,,4pp1b[2:1],,4h[16:7],,,,,
{16}2,8,3,7,4,,
6,5,,4/7,,,B8,B2,,B6,B4,{32},,B2,B1/E2,,,{8},
{16}1/4hb[4:1],,,3,,,8/5hb[4:1],,,6,,,3,,4,,
{8}2-5[8:1],5>7[4:1],2,8h[24:9],,,E7/B6/E6,,
{16}7h[4:1],,,,4,,6,5,,4,5,,B3/E3,E4,,,
{8}7<4[8:1],4q8[4:1],7,8q4[4:1],,4q7b[2:1],,2hx[4:1],
{16},,,,2,,3,3x,,4,4x,,5,6,5,6,
{8}2b,,5/4,5,5/6,5,5/3,5,4/2,3,5/7,6,{16}2,6,4,,8b,,,,
4hx[48:1],5,4,6hx[48:1],4,5,3hx[48:1],5,4hx[48:1],5,4hx[48:1],5,1hxb[8:1],,,,
6,7/5,,3,2/4,,1-4<6[6:1]/8-5>3[6:1],2/7,{4},,
{16},,2/5h[8:1],,3,,6,5,,4/7,,5,6,,3,4,,2/5,,4,3,,1,2,,7/8,,5,6,,3<6[4:1],,
{8}3x,6<1[4:1],,1>4[4:1],,4,5-7[8:1],5-1[8:1],,,,8<5[8:1],,8>3[8:1]
,,8,
{16},,7,,5/6,,1,8,,2/7,,3,4,,6,5,,2,4,3,5,,7,5,,1/8,,2,4>1[8:1],,5,,
{4}4/6<1[8:1],5p1[8:1]/6,5/7p3[8:1],7/8q4[8:1],8/6v1[8:1],6/4x-2[8:1],
{8}4/5-7[8:1],6,4/5,3,
{16},,2,,4/3,,8,1,,7/2,,6,6x/5x,,3,4,,2,1,2,8,,6,4,,3,4,2,5h[48:1],1h[48:1],6h[48:1],,
{8},1-3[8:1],5-7[8:1],1v4[8:1],5v8[8:1],1-3[8:1],5,1,6,6<1[6:1],6,6>3[6:1],,6-2[8:1],,6,
{16},,1>7[16:7]/3,,2,,1/5,5xh[16:7],,,,,,,E7/B7/E8,,
{16},,8<2[16:7]/6,,7,,8/4,4xh[16:7],,,,,,,E3/B2/E2,,
{8},1,1-3[8:1],1-6[8:1],1-4[8:1],1-7[8:1],1pp3>1[4:1],1,1bs5[8:3],,,5>4z8[8:5],,,B6,Ch[8:3],,
,,,,1v4[8:1],4V28[4:1],1,,,7x<5[8:1],7,
,,,2,4x>1[8:1],5,6,7x<4[8:1],8,1,2x<7[8:1],3,4,5x>2[8:1],6,7,8x<5[8:1],1,2,{16}2x,3x,{8}4bx>5[4:3],
,,,4,4,3,3,2,2,1,1,7/8,6,4/5,3,
{16}1,2,8,3,7,4,6x,6x,8,7,1,6,2,5,3x,3x,
5x,4bx/6x,,1x,2xq5[16:5]/8bx,,4x,5x/2bx,,,E7,,E8/B7,,,,
8bv5[8:1],,1,,2/8,,3x,4x,,6/7,,1x
,8x,,2,,7v4[8:1],,5,,7-1[8:1],,2-6[8:1],,7,,2-4[8:1],,8-6>5b[6:1],,2,,
{8}8-2>3b[6:1],,8pp5b[3:1],,8,,2x,3,
4v7[8:1],5,4/6q2[16:3]*v3[16:3],,6,,,
{16}2/4q8[6:1],,3/5,,4x,4hx[8:1],,,7/5p1[6:1],,6/4,,5x,5hx[8:1],,,2/4q8v5[2:1],,3/5,,4x,4x,,,5x<1[8:3],,,,,,4q8[4:1],,4,,,,,,,,2>5[16:3],,2,,,,,,8,,{4}1xv6[6:1]/5xv2[6:1],1v4[6:1]/5v8[6:1]
,1/5
,
{16},,5v2[8:1],,4,,5x,3,,,4v7[8:1],,5,,4x,6,,,4v1[8:1],,5/3,,4x,2x,,,5v8[8:1],,6/4,,5x,7x,,,3v8[8:1]/5,,2/4,,3x,1x,,,4/6v1[8:1],,7/5,,6x,8x,
,,6,,8h[16:3],,,1h[16:3],,,3<6[4:1],,,,6p2[4:1],,,,1s5[8:3],,1h[4:1],,,,,,C,,
,,1h[4:1],,,,8,,5h[8:1]/2,,,3,,,4h[16:3]/7,,,,6,,,,C,,
3,4,3,4,2hx[24:1],,6,5,6,5,7hx[24:1],,4,5,4,5,2xb,4,3,7xb,5,6,1xb,8,2,4,3xb,5,4,6,3xb,7,
{8}2xbqq5[8:3],,,7-4[8:1],,,1hb[8:1],,
{16}6,7/5,,3,2/4,,1s5>3[6:1]/8z4<6[6:1],2/7,{4},,
{16},,7/4h[8:1],,6,,3,4,,5/2,,4,3,,6,5,,7/4,,5,6,,8,7,,2/1,,4,3,,6>3[4:1],,
{8}6,3>8[4:1],,8<5[4:1],,5,4-2[8:1],4-8[8:1],,,,1-3<4[8:1]*-4[8:1],,1-7<6[8:1]*-6
[8:1],,1,
{16},,2,,4/3,,8,1,,7/2,,6,5,,3,4,,7,5,6,4,,2,4,,8/1,,7,5<8[8:1],,4,,
{4}5/3>8[8:1],4q8[8:1]/3,4/2q6[8:1],2/1qq4[2:1],
{8}1hxb[4:1],,,2hb[4:1],,,3<6p1[16:7],3b,,,,,{8},8v5[8:1],5V71[4:1],8,,,2x>4[8:1],2,
,,,7,5x-7>8[8:1],4,3,2x-4<5[8:1],1,8,7x-1>2[8:1],6,5,4x-6<7[8:1],3,2,1x-3<4[8:1],8,7,{16}7x,6x,{8}5bx<4[16:9],
,,,5,5,6,6,7,7,7/8,8,8/1,1,1/2,2,
{16}7x,2,8,1,8,1,7x,1,7x,2,8,1,8-3[8:1],1,7x,1,
8b,,1bx-5[8:1],1bx,,4bx<8[4:1]
,4bx,,,,,,5x,4x,3x,,
1bx,2,1,2,1,2,8b,2,8,2,8,2,1b,2,1,2,1b,2,1,2,1,2,8b,2,8,2,8,2,1b,2,1,2,3b,2,3,2,3,2,4b,2,4,2,4,2,3b,2,3,2,{32},4x,5x,6hx[32:13],{8},,5h[16:7],,,{24}4x,3x,2x,1x,8x,7x,
{8}6hx[2:1],,,3h[8:5],,,1qq4[16:7],1h[8:4],,,,,{32}8x,7x,6hx[16:7],,{8},,,
{16}3bh[16:1],5h[16:1],3h[16:1],5h[16:1],3h[16:1]
,5h[16:1],3h[16:1],5h[16:1],3h[16:1],5h[16:1],3h[16:1],5h[16:1],3h[16:1],5h[16:1],3h[16:1],5h[16:1],{24}3bx,2x,1x,{16}7h[16:1],8h[16:1],7h[16:1],8h[16:1],7h[16:1],8h[16:1],{24}7bx,6x,5x,{16}2h[16:1],1h[16:1],2h[16:1],1h[16:1],2h[24:1],1h[24:1],
{32}3bx,4x,5xv3[8:3]/7v5[8:3],,{8},,,,,,4<8[8:3]*v6<8[8:3]/5,6/4,,,,,1-5b[8:1],8-2b[8:1],1,{4}8,,,B2/E2/E3,{16}7bqq5<1b[4:3],,,A7,,,3bp1[8:3],,,A3,,,,,,,{2}A1f,
{16}3h[32:1],5,4,5,3,6,2,7,
1bv4[8:1],,8,,7/1,,6,6/5x,,7/2,,3,3/4x,,7,,2v5[8:1],,4,,2-8[8:1],,7-3[8:1],,2-5[8:1],,7-5[8:1],,2,,7,,
{8}1x>5b[4:1],,5x<1b[4:1],,1xV35b[4:1],,5x,6,
7v4[8:1],6,7b/8V24[16:3]*V64[16:3],,8b,,,
{16}6v1[16:3],,4,,4,6bx,,,3v8[16:3],,5,,5,3bx,,,6p1v4[2:1],,5,,5,6bx,,,4x>8[8:3],,,,,,5p1[4:1],,5x,,,,,,,,7<4[16:3],,7,,,,,,1,,{4}8x-2>3[6:1]/4x-6<7[6:1],8bv5[6:1]/4bv1[6:1]
,8b/4b
,
{16},,4v7[8:1],,5,,4x,6x,,,5v2[8:1],,4,,5x,3x,,,5v8[8:1],,4/6,,5x,7x,,,4v1[8:1],,3/5,,4x,2x,,,6v1b[8:1]/4,,7/5,,6x,8x,,,5/3v8b[8:1],,2/4,,3x,1x,
,,3,,1h[16:3],,,8h[16:3],,,6>3[4:1],,,,3q7[4:1],,,,8z4[8:3],,8h[4:1],,,,,,C,,
,,8h[4:1],,,,1,,4h[8:1]/7b,,,6,,,5h[16:3]/2b,,,,3,,,,C,,
6b,5,6,5,7hx[24:1],,3b,4,3b,4,2hx[24:1],,5,4,5b,4,7b,5,6,2b,4,3,8b,1,7
,5,6b,4,5,3,6b,2,
{8}7b-1[8:1],1xv6b[16:3],7,,,2-4[8:1],4,2,5-8[8:1],8V64[16:3],5,,,1-3[8:1],3,1,8-5[8:1],5-7[8:1],8,,4-1[8:1],1-3[8:1],4,,8v3[8:1],3xV17[16:3],8,,,1,2,3,
7v4b[8:1],4V68b[16:3],7,,,3>1[8:1],1,3,5v8b[8:1],8V64b[16:3],5,,,1>3[8:1],3,1,6-3[8:1],3x-5[8:1],6,,1-4[8:1],4x-2[8:1],1,,{16}6,,3,4,3,4,2,,,6,5,,4,5,3,5,
2,,1,,8/6,,5,4,,3-1-4[16:3],4,,3/5,,,,7,,8,,1/3,,4,5,,6,5,,4,7,3,8,
2/1,,3,,4/5,,6,5,,5,6,,4/7,,6hx[8:1],,
1b>4[8:1],,,4x,,,8bpp5b[4:1],,,,5x,,,,1x,,
{8}Ch[4:3],,4,4,3,3,2,2,1/7,4/6,2/5,8/3,{16}7,3,5,,{4}1b,
{16}4,3,,2/5,,,E7/B7,E8,,E3/B3,E4,,6,5,7,5,
{32}8b,7x,6x,5x,{16},{32}2b,3x,4x,5x,{16},{32}1b/5b,8x/4x,7x/3x,6x/2x,{16},{32}1bx-7-2[8:1]/5bx-3-6[8:1],2x/6x,3x/7x,4x/8x,
