&title=直感オーバーライト
&artist=Tacitly
&first=0.51
&des=Ragna
&wholebpm=136
&demo_seek=63.3
&demo_len=30.8
&des_5=Ragna
&lv_5=13
&inote_5=(136){16}
5V37[8:3],,,,,,,,,,,1,,,2h[1:1]/8,,
,,,,,,,,,,4,,4,,4,4,
1V73[8:3],,,,,,,,,,,5,,,6h[4:1]/4,,
,,5,5,7,,,,{32}1h,2h,3h,4h,5h,6h,7h,8h,{16}1h,,,,
6h[8:1],,5,7,2h[8:1],,4,,3,5,,6,4,,27,,
,,2,4,3h[8:1],,7,5,6h[8:1],,4h[8:1],,5,3,6,,
2h[8:1],,4,1,6h[8:1],,5,,7,1,,2,8,,36,,
4-2[8:1],,3,,5-7[8:1],,6,,4-8[8:1],,3,,5b,,,,
6h[8:1],,1,7,2h[8:1],,8,,3,4,,6,5,,27,,
,,3,7,1h[8:1],,6,2,8h[8:1],,3h[8:1],,6,4,5,,
2h[8:1],,8,3,6h[8:1],,1,,7,8,,2,1,,36,,
,,4qq5[8:3]/5q5[8:3],,36,,45,,,,,,,,,,
6h[4:3]/4,,,,4,,,,5,,,,5,,,,
3h[2:1]/7,,,,7,,,,4,,3,,25,,,,
7h[4:3]/1,,,,1,,,,3,,,,3,,,,
4h[2:1]/8,,,,8,,,,5,,4,,36,,,,
2h[16:3],,,5h[16:3],,,4h[4:1],,,,7,,6,,1,,
2-6[8:1],,,,,,7,,7h[16:3],,,5<4[32:11],,,,,
,,,,,,8,,8h[16:3],,,5-1[8:1],,,,,
{32}7s3[16:7],6h,{16},,,,,,,,,,,,,,,
27,,3,4,3,4,3h[4:1],,1,,5h[4:1],,1,,4h[4:1],,
8,,6h[4:1],,8,,3h[4:1],,1,,5h[4:1],,1,,4,,
36,,5,4,5,,2h[4:1],,8,,6h[4:1],,1,,4>8[4:1],,
,,8<4[4:1],,,,4p2[32:11],,,,8,,7,,6,,
5h[16:3],,,1h[16:3],,,6^3[8:1],,,,2-6[8:1],,,,8z4[32:9],,
,,,,,,2,,2p5[8:1],,,5<4[32:11],,,,,
,,,,,,8,,8q4[8:1],,,4>5[32:13]*p5[32:13],,,,,
,,,,,,,,,,6,,45,,3,,
2h[8:5]/6,,,,,,,,1h[8:1],,,3h[8:1]/8h[8:1],,,47,,
,,6,4,5,3,4,,2h[8:1]/5h[8:1],,,1h[8:1]/6h[8:1],,,78,,
,,1-6[8:1],,6,,1,,5^8[8:1]*^2[8:1],,,,5,,,,
1^4[8:1],,,,1/5-2[8:1],,6-1[8:1],,5,,6b,,,,,,
7h[8:5]/3,,,,,,,,8h[8:1],,,6h[8:1]/1h[8:1],,,52,,
,,3,5,4,6,5,,7h[8:1]/4h[8:1],,,8h[8:1]/3h[8:1],,,2h[8:7]/1,,
,,,,,,4,,5,,6,,7,,1b-5[8:1]/8-6[8:1],,
,,1-3[8:1]/8b-4[8:1],,,,1b/8,,,,,,,,,,
3-8[8:1]/6bv4[8:1],,,,36,,,,1-5[8:1]/5,,,,15,,6,,
74,,,24,,,18,,,,27,,3,,45,,
6-4[8:1],,7,,2-5[8:1],,1,,7-3[8:1],,8,,2,,1,,
25,,3,,75,,6,,4-1[8:1]/5-8[8:1],,36,,,,,,
2V46[16:3]/7,,,,26,,,,8z4[4:1],,,,84,,,,
2h[16:3],,,1,,,38,,,,27,,6,,45,,
27,,3,,45,,27,,6,,45,,3,,1s5[16:3]/8z4[16:3],,
,,,,,,,,{32}8h,7h,6h,5h,4h,3h,2h,1h,{16}8h,,,,
7-4[8:1]/3bv8[8:1],,,,37,,,,5^8[8:1]/1,,,,15,,2,,
31,,,86,,,45,,,,36,,7,,18,,
2-4[8:1],,3,,6-1[8:1],,7,,2-6[8:1],,3,,6,,7,,
1b^6[8:1]/8,,2,,3/1b^4[8:1],,2,,1b^6[8:1]/7,,8,,1b-5[8:1]/3,,2,,
1b/6^3[8:1],,,,62,,,,1pp1[4:1],,,,15,,6,,
7h[16:3],,,8,,,51,,,,36,,2,,18,,
2b/7b,,,,,,3b/5b,,,,,,18,,7b/2b,,
,,46,,46,,,,2-6[8:1]/8,,,,,,,,
4h[8:1]/5h[8:1],,,3h[8:1]/6h[8:1],,,2V85[16:3]/7V14[16:3],,,,,,,,,,
3h[8:1]/6h[8:1],,,2h[8:1]/7h[8:1],,,1V74[16:3]/8V25[16:3],,,,,,,,,,
3,6,4,5,3,6,4,5,2,7,4,5,2,,1b/8b,,
,,3b/6b,,3b/6b,,,,,,,,,,,,
3,4,3,,28,,17,,6,5,6,,17,,28,,
3,4,3,,2/8^3[8:1],,17,,8/6v1[8:1],,5,,64,,3,,
2,1,2,,35,,46,,7,8,7,,64,,35,,
2,1,2,,3/5-1[8:1],,46,,75,,8,,2b/7b,,,,
3,4,2,,18,,27,,6,5,7,,18,,27,,
3,4,2,,1v3[8:1]/8,,27,,6^1[8:1]/1,,5,,64,,3,,
2,1,3,,45,,36,,7,8,6,,45,,36,,
1b/8b,,,3b/7b,,,,,,,,,,,,,
3b/5h[8:1],,,3h[8:1]/1b,,,1h[8:1]/7b,,,7h[8:1]/5b,,,5b/1b,,,,
E
