&title=メインキャラクター
&artist=*Luna/鏡音レン
&first=0
&des=Main Character
&clock_count=4
&lv_5=13+
&inote_5=(192){1},,
{1}4-1[2:3],
5-8[2:3],
4-1[2:3],
5h[1:1],
{4}3h[1:1],4,4,4,
6h[1:1],5,5,5,
3-8[4:1],8,7<4[4:1],4,
{8}2,1-5[8:1],,1/7-3[8:1],,7/2<4[4:1],,2b/6b,
{4},8<2[1:1],1,1,
{8}1,,1,,1>7[2:3],,8,8h[4:1],
{4},8,8,8,
{8}8,,8,,8<2[2:3],,1,1h[4:1],
{4},1,1,1,
{8}1,,1,,1-5[8:1],,6,6<3[8:7],
{4},4,4,4,
{4}4,4-8[8:1],8b,,
{8}2/6,3>8[8:1],4,3/5,,4>8[32:5],5,6/4,
,5,1-5[8:1]/6-1[8:1],,1/6,,4,4,
3/7p3[8:1],,2,1-5[8:1],,1/6,7,8qq4[8:3],
,8/3,2,1h[8:3],,,6q2[8:1],,
6/2,,4,8h[4:1],,3,2/7,1-4[8:1]/6>4[8:1],
,1/6,,8-5[8:1]/3-6[8:1],,3/8,,2pp1[16:5],
,1,8,7<4[8:1],,7/8,,3-8[8:1],
,3/4,,6-1[8:1],,5/6,,2,
7/3,6<1[8:1],5,6/4,,5<1[32:5],4,3/5,
,4,8-4[8:1]/3-8[8:1],,8/3,,5,,
6/2q6[8:1],,7,8-4[8:1],,8/3,2,1-5[8:1],
,1/5<4[16:5],,8h[4:1],,,,7,
6V47[4:1]/5,,4,2-6[8:1],,1/2,,8h[4:1],
,5pp4[16:5],4,3h[4:1],,,,2,
1/5,1-5[8:1]/5-7[8:1],,1b/5b,,8-4[8:1]/4-2[8:1],,8b/4b,
,1-5[8:1],7-3[8:1],1,7b>2[8:1]*<4[8:1],,,,
{8}3,3h[8:1],8,8h[8:1],1h[4:1],6,6,7h[4:1],
5,5,4h[4:1],6,6,5h[4:1],3,2,
1h[4:1],6,7h[4:1],2,3h[4:1],1<3[4:1],8,7,
,,2h[4:1],1,6h[4:1],5,3,2h[4:1]/4,
,5p1[8:1],6,7,,4<8[8:1],3,1h[4:1],
,6,7h[4:1],2,3h[4:1],4,6h[4:1],5,
3h[4:1],1,8h[4:1],2,1h[4:1],7-4[8:1],6,7/8,
,1,2/3,4,3/5,4,5>7[16:3]/7,6h[4:1],
{16},,,,,,7,8,7,6,5,,3,,2/4V68[4:1],,
{8},1,2,3V17[4:1],,7,6,5,
4h[4:1],1,3h[4:1],6,5h[4:1],8-4[8:1],1,8/2,
,3h[4:1],6,7h[4:1],5,3-6[8:1],1/2,8h[4:1],
,4h[4:1],7,7,3h[4:1],6,6,2h[4:1],
5<8[8:1],5,1,2,1/3,8,7/2,3,
5,2b/6b,3/7,2b-5[8:1]/6b-1[8:1],,2b/6b,,8b<5[8:1]/4b>1[8:1],
,,,2h[4:1]/6h[4:1],,,,3h[4:1],
,4,2/5,,6,5,4/7,8h[4:1],
,1,2/7,,4,4,3/5,6h[4:1],
,5,4/7,,1,8,2/7,3h[4:1],
,5,2/6,,7,8,6/1,2h[4:1],
,1,3/8,4h[4:1],,7,6/3,2/5h[4:1],
,1,2/6,7-4[8:1],4-7[8:1],7>6[16:5],3,1h[4:1],
,,2-5[8:1],,1/2,8-4[8:1],7,8b/6-2[8:1],
,6b/3-7[8:1],,3b/5-2[8:1]*-8[8:1],,5b,,7b/1b-5[8:1],
,1,6-1[8:1],6,4>8[32:5],4,8,7p3[8:1],
,7/1,2,2h[8:3],,,4-8[8:1],3,
4/5<2[8:3],,2,2>5[4:1],,5<8[4:1],,8>3[4:1],
,3>5[16:5],,8,,,2,1h[8:5]/4,
,5,6,6,7,7,8,8h[8:5]/5,
,4,3,3,2,2,1,1/5h[4:1],
,3-7[8:1],2/4,3,,5-1[8:1],4/6,5>8[8:3],
,8,7,7,6,6,1/5,,
{1}4b<3[2:7]/3b,
1h[4:3],
7h[4:3],
5h[4:3],
{8}2h[4:3]/4,,5,,6,,7,7,
8h[2:1]/4,,3,,2,2,8,1h[4:1]/7,
,6,5,4/7h[4:1],,3,6,5z1[8:3]/1-5[8:3],
{4},,,3b/7b,
{8}1/2,8,7/1,6,1/8,2,3/5,6<4[4:1]/4,
,5,5w1[8:1],,5,,3/7,2,
1/6,7,7,2-4[8:1]/8,,2/5-1[8:1],,5/7h[4:1],
,8,1/6,5,3/4,2>1[16:5],,6h[2:1],
{32},,,,,,,,2z6[16:5],3,4,5,,7,8,1,{8}2,,7,8-4[8:1],
,4/8,3p6[16:3],,5,,8,8-5[8:1]*-4[8:1],
,8b,,1-4[8:1]*-5[8:1],,1b,,3V16[16:3]/7V52[16:3],
,3b/7b,,,{32}1,2,3,4,5,6,7,8,1b/5b,,,,,,,,
{8}7-4[8:1],,7/8,,3,5,2/4,1h[4:1],
,6,5/7,8h[4:1],,4,2-5[4:1]/6,,
{4}5-8[4:1],8-3[4:1],3-6[4:1],6-1[4:1],
{8}1-4[8:1],,4,,2/8,6,5,4bq1[16:3]/7b,
,3,2-6[8:1],,2/8,,7,7h[4:1],
,1<3[4:1],2,3,,8,1/7,,
{8}2-5[8:1],8-4[8:1],2b,8b,,1,2/8,3v8[8:1]/7-4[8:1],
,3b/7b,,2/6,,4-1[8:1]/8-5[8:1],5/1,4b/8b,
{1},,,
E
