&title=Limen
&artist=Silentroom
&first=0.005
&des=room but not silent
&des_5=room but not silent
&lv_5=12+
&inote_5=(95){4},8-5-2-7[2:3],,,,,,,,2-7-4-1[2:3],
,,,,,,,6h[8:3]/5p1[8:1],
,6h[8:11]/5>8qq5[8:9],
,,,,,3h[16:3]/4q1[8:1],
3h[16:3]/4p7[8:1],3h[16:3],
3h[16:3]/5h[16:3],4h[16:7]/6h[16:7],{64},,,,,,,,,,,,,E4/E7,B3/B7,B2/B8,{4}E2/E1,
,3bh[4:1]/4V27V51[4:1],4b,3pp2[4:1],
3b,7pp6[16:3],{8}4,{16}4,3,2,{64}E5,B5,B6,E7,E2,B2,B3,E4,,,,,{8}C,
E5/E1,{64}7/1V36V84[16:3],6,{32}5h[32:3],,,,,,,{4}1-7-2-6[4:1],1,
{64}A4,D4,A3,D3,{16}A2,{64}A8,D8,A7,D7,{16}A6,{4}C,{32}6,2,7,3,8,4,1,5,{8}C,{64}E7,B6/B7,B5/B8,E5/E1,,,,,{8}2v3V17[4:1],
2h[8:1],,,C,{64}A7,D7,A6,D6,A5,D5,{32}A4,{64}A2,D2,A1,D1,{16}A8,,,8-4-7[8:1]b,
1,8,1,{4}8,{8}1/8-6v3-1[16:3],{32}4h[16:1]/E6,B6,B7,E8,{4}4-6[16:1]*q1q6[16:3],
4,{8}8q5[8:1],5<8[8:1],{4}8/1-7-2-6[4:1]b,1V74-2[6:1],
{64},,,,,,,,,,,,,,,,E8/1-7[24:1]*>5V73[4:1],B8,B1,B2,B3,B4,B5,E6,,,,,,,,,{4}1,8h[4:1],
{64}E1,B1/B8,B7/B2,B6/B3,{16}E4/E6,,,6,4,{8}6,{16}3,5,{8}3,{4}7h[16:3]/8-5-1-4[4:1],
8/7>5[4:1],7,{16}E2,B2,B3,B4,{8}8/5-3[16:1],{16}8,8,
{8}5/8h[8:1],2h[8:1],C,E2/A1,5h[8:1]/7-3-1-5[4:1],6h[8:1],{4}7,
{8}8b,8,2V46[4:1],3V57[4:1],4V68[4:1],{64},,,,,,,,,,,,,,,,A1,D2,A2,D3,{16}A3,
{4}Cf,{32}7,8,7,8,7,8,7,8,{8}7h[8:1],4h[8:1],1h[16:1],1h[16:1],
{16}1-4[16:1]*-6[16:1],2b,7b,5b,{4}1b-5-1[8:1],{8}1>4V62[16:3]/4<7[16:1],8b,{32},,,,,,,,8,
1,2,3,4,5,6,7,{4}8/4q1q6[16:3]*p7p2[16:3],4,{16}C,E3,E7,E1,
{64}2-7[16:1]/6-3[16:1],E7/E3,B7/B3,B8/B4,{16}E1/E5,{4},{16},,{64}E7/E3,B6/B2,B5/B1,E5/E1,,,,,,,,,,,,,{4}Ch[4:1],
{16},,,,5/7h[16:3],4,3,2,,2,3/5,6,5/3,2,5,5,
4,4,6,6,4/2h[16:3],5,6,7,,7,6/4,3,4/6,7,4,4,
5,5,3,3,{4}6-1[8:1],2-5[8:1],7-4[8:1],
3-8[8:1],6-2[8:1],4-8[8:1],7-3[8:1],
1-5[8:1],4h[4:1],6-2[8:1],8-4[8:1],
5h[4:1],7-3[8:1],1-5[8:1],4h[4:1],
6-2[8:1],8-4[8:1],5h[4:1],7-3[8:1],
1-5[8:1],4h[4:1],6-2[8:1],8-4[8:1],
5h[4:1],2q4<2[2:1],,,,7>4pp7[2:1],
,,,1pp4>5pp8[2:3],
,,,,,,,4/3h[4:3],
A1/E1/B1,6,
C,5/6h[4:3],A8/E1/B8,3,
C,4h[16:3]/6h[16:3],5h[16:3]/3h[16:3],{16}6,6,6,6,
4,4,4,4,8,8,8,8,2,2,{32}2,3,{16}2,7,7,{32}7,6,{16}7,
,,,,{4}7V53[4:1],{2}2V46[4:1],
{16}8,8,8,8,{4}8V24[4:1],{2}4V68[4:1],
{4}4,{24}8bx,7x,6x,3bx,2x,1x,7bx,6x,5x,2bx,1x,8x,{4}4x-6[16:1]*V28[4:1],
{16},,,,5,6,4,3,8,7,1,2,6,7,3,2,
{4}6q8>6[4:3],6,,,,2q4<2[2:1],
{24},,,,,,,,,,,,,,,,,,1bx,
2x,3x,6bx,7x,8x,2bx,3x,4x,7bx,8x,1x,{4}5x-3[16:1]*V71[4:1],
{16},,,,4,3,5,6,1,2,8,7,3,2,6,7,
{32}3bx,4x,5x,6x,2bx,3x,4x,5x,{4}1p8[2:1]b,{16},,,,,,,,4,
3h[16:7],,,{4}2<4p2[8:3],{16}2,{64},,,,,,,,A1,D1,A8,D8,{16}A7,,,6,
{32},,2,6,3,7,4,8,{24}5bx,4x,3x,1bx,8x,7x,4bx,3x,2x,8bx,7x,6x,{4}3xV57[4:1],
7xV13[4:1],3xV57[4:1],7xV13[4:1],3xw7[8:1],
{8},,5h[4:3],{16}4,4,{8}4,4,{16}3,3,{8}3,
{16}3,5,4,6,{8}4h[4:3],{16}5,5,{8}5,5,{16}6,6,{8}6,
{16}6,5,5,8,2/8h[4:3],2,{8}2,{16}3,3,{8}3,{16}4,4,{8}4,
{16}3,7,2,6,{8}1h[2:1],{16}8,7,{8}6,5,{4}4s8[4:1],
4,1h[4:1],2h[4:1],3h[4:1],
4h[4:1],{8}5h[4:1],6,6h[4:1],7,7h[4:1],8,
8h[4:1],1,1h[4:1],2,2h[4:1],3,4,5,
{1}4qq2-5[8:1]/8qq6-1[8:1],
E
