&title=來人具惨
&artist=La prière
&first=0.06
&des=29
&lv_5=13
&inote_5=(158)
{1},,
{24}5x,6x,7x,,,,{4},,,{24}6x,7x,8x,,,,{4},,,
{24}E4,B3,B2,,,,{4},,,{24}B3,B2,E2,,,,{4},,,
{24}E4/5x,B3/6x,B2/7x,,,,{4},,,{24}B6/3x,B7/2x,E8/1x,,,,{4},,,
{4}5bh[4:8],,B5,B6/B4,B7/C/B3,B8/B2,B1,1,1h[4:2],,Ch[4:6],
{16},,1,,1,,,,1,,,,1,,,1,E2,B2,B3,E4,
{4}4x/5x-7[8:1]*-2[8:1],,{4}5/4-2[8:1]*-7[8:1],,
{4}4/5-7[8:1]*-2[8:1],,{8}5/4-2[8:1]*-7[8:1],3/6,,,
{4}4/5<7[8:1]*>2[8:1],,{4}5/4>2[8:1]*<7[8:1],,
{4}4/5<7[8:1]*>2[8:1],,{8}5/4>2[8:1]*<7[8:1],B3/B6,,,
{4}4/5p7[8:1]*q2[8:1],,{4}5/4q2[8:1]*p7[8:1],,
{4}4/5p7[8:1]*q2[8:1],,{8}5/4q2[8:1]*p7[8:1],B1/B8,,,
{4}4/5-7>8[8:1]*p1[8:1],,{4}5/4-2<1[8:1]*q8[8:1],,
{4}4/5-7>8[8:1]*p1[8:1],,{8}5/4-2<1[8:1]*q8[8:1],1>4[8:1]/8<5[8:1],,,,
{32}B4,B3,B2,E2,,,,,E6,B5,C,B1,,,,,B4,B3,B2,E2,,,,,E6,B5,C,B1,,,,,B4,B3,B2,E2,,,,,
{8}1x,1bhx[8:2],3b,8bh[8:2],3b,,
{32}B5,B6,B7,E8,,,,,E4,B4,C,B8,,,,,B5,B6,B7,E8,,,,,E4,B4,C,B8,,,,,B5,B6,B7,E8,,,,,
{8}8x,8hx[8:2],6,1h[8:2],6,,
{32}5x/B4,B3,B2,E2,,,,,6x/E6,B5,C,B1,,,,,5x/B4,B3,B2,E2,,,,,6x/E6,B5,C,B1,,,,,5xh[8:3]/B4,B3,B2,E2,,,,,
{8}1bx,1hbx[8:2],3b,8bh[8:2],3b,,
{32}4x/B5,B6,B7,E8,,,,,3x/E4,B4,C,B8,,,,,4x/B5,B6,B7,E8,,,,,3x/E4,B4,C,B8,,,,,4xh[8:3]/B5,B6,B7,E8,,,,,
{8}8x,8hx[8:2],6,1bs5[1:2],6b,
{1},,
{4}1h[8:8],,8,7,6h[8:8],,5,4,3h[8:15],,2,1,8h[8:8],,,,
{8}1h[8:1],8h[8:1],2h[8:1],7h[8:3],3h[8:3],,,5h[8:2],,4h[8:1],6h[8:1],3h[8:4],7h[8:3],,,,1h[8:2],,3h[8:2],,5h[8:2],,7h[8:8],,3h[8:6],,,,,,,,
{4}1pp6[8:8],,8,7,6pp3[8:8],,5,4,3pp8[8:8],,2,1,8pp5[8:6],,,,
{8}2>4[8:1],7<5<7[8:2],,,,,4,5>1[8:2],,1>3[8:1],8-6[8:1],8-2[8:1],8w4[8:1],,,,2>7[8:3],,2h[8:4],,,,7x-5-8-4-1-3[8:5],2h[8:6],,,,,,,
{8}2-5[8:1]/6-2[8:1]b,1/5,2/6,,2-5[8:1]/5-2[8:1]b,1/4,2/5,,2-5[8:1]/4-2<5[8:4]b,1/3,2/4,,B1/B8/C,B6/B7/C,B5/B4/C,,6-1[8:1]/2-6[8:1]b,5/1,6/2,,6-1[8:1]/1-6[8:1]b,5/8-3[8:1]*-4[8:1],6/1,,,7>7[8:5]*>7[8:5]/Ch[8:2],,,E1/D1,E2/D2,E3/D3,E4/D4,E5/D5,,
{8}1v4[8:1]*v4[8:1],6v4[8:1]b,1<8-2<1-5q6>3[8:10],6,1h[8:10],,,,,,,,,,,,
{4}1h[4:2]/8,,3h[4:2],,5h[4:1],7h[4:1],Ch[4:5],B7/B1,
{8}8hb[8:2],,,,B8,B4,4x-8[8:1]*-8[8:1],4h[8:2],,,4-6[8:1],4-2[8:1]b,4w8[8:1],,{16},Cf,{8},,,,,,,,,
{8}1-6[8:1]/7,,7,,6-3[8:1]/7,,7,,3-8[8:1]/7,,7,,8-4[8:1]/7,,7,,4/7,,7-4-8-4-1-4-7[8:6],7x,4x,8x,4x,1x,4x,,,,
{8}1v6[8:1]/7,,7,,6v3[8:1]/7,,7,,3v8[8:1]/5,,5,,8v5[8:1]/5,,5,,4/7,,7-5-3-1-3-5-7[8:6],,5x,3x,1x,3x,5x,,
{32}8b<5[8:1],,,,,,,,1<6[8:1],2,3,4,,,,,2,3,4,5,,,,,
{8}1bx/8bx,,1b/8b,,1b/8b-4[8:1],8,7/8<4[8:2],,4>8[8:2],4,8p4[8:2],8,4p8[8:2],4,8-4[8:1],8,,
{32}3x,2x,1x,8x,7x,6x,5x,4x,,C,,,
{16}E5,B5,B6,E7,E5,B4,B3,E3,E7,B7,B8,E1,E3,B2,B1,E1,5,6,7,8,4,3,2,1,6,7,8,1,3,2,1,8,
{8}7h[8:4]/3<6[8:1],3,3,,4<7[8:1],,4,,5<8[8:1]/3,4,5,4>1[8:1],5v8[8:1],4v1[8:1],,,
{8},,{16},E5,B4,B3,E3,E5,B5,B6,E7,E3,B2,B1,E1,E7,B7,B8,E1,4,3,2,1,5,6,7,8,3,2,1,8,6,7,8,1,
{8}2/6<8[8:1],6,3,3>1[8:1],3,7,7>1[8:1],7,3,4,5-7[8:1],5-3[8:1],5w1[8:1],,,,
{8}1bx/8bx,,,,5-1-7[8:8]*-1-3[8:8],,,,,,,,,,,,
{4}3>3[8:18]/7<7[8:18],,,,,,,,,,{32},,,
{8},,4h[8:2]/5,,6h[8:1],3h[8:1],7h[8:1],2h[8:1],8hb[8:2],,C,,
{32}B4,B3,B2,E2,,,,,E6,B5,C,B1,,,,,B4,B3,B2,E2,,,,,E6,B5,C,B1,,,,,B4,B3,B2,E2,,,,,
{8}1x,1bxv4[8:1]b,3b-8[8:1]b,1b,3b,,
{32}B5,B6,B7,E8,,,,,E4,B4,C,B8,,,,,B5,B6,B7,E8,,,,,E4,B4,C,B8,,,,,B5,B6,B7,E8,,,,,
{8}8x,8xv5[8:1],6-1[8:1],8,6,,
{32}5x/B4,B3,B2,E2,,,,,6x/E6,B5,C,B1,,,,,5x/B4,B3,B2,E2,,,,,6x/E6,B5,C,B1,,,,,5xh[8:3]/B4,B3,B2,E2,,,,,
{8}1x,1bxv4[8:1]b,3b-8[8:1]b,1b,3b,,
{32}4x/B5,B6,B7,E8,,,,,3x/E4,B4,C,B8,,,,,4x/B5,B6,B7,E8,,,,,3x/E4,B4,C,B8,,,,,4xh[8:3]/B5,B6,B7,E8,,,,,
{8}8x,8hx[8:2],6,1bz5[1:2],6b,
{1},,
{8}E5,C/E1/B7/B8/B1/B2,,E2,C/E6/B4/B5/B6/B7,,E6,C/E2/B8/B1/B2/B3,,
{8}1b/8b,5b/6b,1b/2b,1b,1bpp1[4:8]*pp1[4:8],1b,1h[4:8],,,,,,,,,,,,,,,,A1,E
