&title=KEMURIKUSA
&artist=nano
&first=-0.32
&des=N
&lv_5=13+
&inote_5=(143)
{1},
{16}5,,,5,,,6^4[8:3]/5,,{2},
{16}3,,,3,,,2^5[8:3]/3,,{2},
{16}6,,,6,,,7<3[16:7]/5,,{2},
{16}2,,,2,,,1>6[16:7]/3,,{2},
{16}8,,,57,,,6qq3[8:3]/4,,{2},
{16}1,,,24,,,{2}3-5[8:1]/5-7[8:1],{16}7,7,
{16}8,,,56,,,{2}5-3[8:1]/4-6[8:1],{16}2,2,
{4}1^4[8:2],4^7[8:2],7,1,
{16}2,1,2h[8:2],,,,4,2,{8}4^1[8:1],,46,,
{16}7,8,7h[8:2],,,,5,7,5h[16:3],,,4h[16:3],,,2,,
{16}4,3,4,3,,,5,6,5s1[32:5],6,,,8,,,,
{16}2,4,2,4,1,7,1,7,5,6,4,5,{4}3b,
{16}42,,4,3,,6,5,,7-4[8:1],8,,8,7,,2,,
{16}1,,3,4,,5,4,,2,4,3,5,4,,6,,
{16}75,,5,6,,3,4,,2-5[8:1],1,,1,2,,7,,
{16}8,,6,4h[8:1],,7,5h[8:1],,6,5,6,4,5,3,4,,
{16}21,,4,3,,6,5,,7p3[8:1],8,,8,7,,2,,
{16}1,,3,4,,5,4,,2,4,3,5,4,,6,,
{16}78,,5,6,,3,4,,2q6[8:1],1,,1,2,,7,,
{16}8,6,8,6,4,7,4,7,2,1,3,8,4,7,3,6,
{16}2^4[8:1],,,4,2,,6,,5p1[8:1],,,8,5,,,,
{16}1h[8:2]/6,,,,4qq4[8:2],,,,5,,,7,7^5[8:1],,4,,
{16}3h[8:2],,,,4q5[8:2],,,,5,,,7,7,,5,,
{16}4/6p1[8:1],,,3,6,,4,,1,3,8,2,7,,1,,
{16}6-4[8:1],,,8,6,,2,,4-8[8:1],,,3,4,,,,
{16}7h[8:2]/1,,,,6pp5[8:2],,,,4,,,2,2^4[8:1],,5,,
{16}6h[8:2],,,,5p4[8:2],,,,4,,,2,2,,4,,
{16}5/3q8[8:1],,,6,3,,5,,8,6,1,7,2,8,3,1,
{2}4>7[8:6],7,5<2[8:6],2,
{2}3h[2:1],4h[2:1],5h[2:1],6h[2:1],
{16}8,,,6,5,,74,,6^1[8:1],5,6,5,6,,4,,
{16}1,,,3,4,,25,,3,4,3,4,2,,6,4,
{16}7,,53,,1,4,3,,7,,65,,2,4,2,4,
{16}1,,6,5,6,5,6,5,8,,3,4,3,4,3,4,
{16}2,2h[8:1],,4,4h[8:1],,6,6h[8:1],,8,8h[8:1],,1,7,3,5,
{16}1b,,82,,3v8[8:1],4,2,,53,,7-4[8:1],7,,8,7,,
{16}1,,35,,6v1[8:1],5,7,,64,,2-5[8:1],2,,1,2,,
{16}8,,64,,3,4,2,,35,,6,5,7,,48,,
{48}7b/1,6,5,4h[8:1],,,,,,8b,7,6,{16}5h[8:1],,8,,
{48}7b/1,6,5,4h[8:1],,,,,,8b,7,6,{16}5h[8:1],,8,,
{16}17,,,62,,,{8}3qq8[8:3]/5h[8:2],,,,{16}4,5,
{16}6,,,17,,,{16}2p5[8:1]/8q5[8:1],,,,82,,,,36,,
{16}2^5[8:1],,,1,2,,6,,7^4[8:1],,,8,7,,3,,
{16}2,4,3,4,2,5,4,6,1b-5[8:1],5,3,7,1b,,,,
{16}8b/3b,,24,,6pp5[8:2],5,7,,46,,2-5[8:1],2,,4,2,,
{16}1,,75,,3qq4[8:2],4,2,,35,,7-4[8:1],7,,5,7,,
{16}8,,24,,6,5,7,,64,,3,4,2,,51,,
{48}2bq8[8:1]/7,3,4,5,,,,,,8b,7,6,{16}5,,4,,
{48}2bq8[8:1]/8,3,4,5,,,,,,1b,8,7,{16}6,,4,,
{16}1,,,28,,,3-6[4:1]/7-2[4:1],,{2},
{16}8,,,17,,,2^7[4:1]/6^3[4:1],,{2},
{1}1h[8:8]/5h[8:4],
{16}4,2,4,2,5,3,5,4,{16}6,5,7,2,1,3,6,8,,
