&title=Protoflicker
&artist=Silentroom
&first=0
&des=明虎
&lv_5=14+
&inote_5=(140)
{1},,
{8}1b>1b[2:7]*^2^3^4^5^6^7^8^1[2:7]/8,,,,,,{12},E3,E4,E5,,,,,,,,,,E4,E3,E2,,,,,,,,,,E8,E7,E6,,,,,,,,,,,,
{12}3,4,5,3,4,E2,3,4,5,3,4,E2,3,4,5,4,5,6,5,{24}3,4,{12}3,4,5,6,
{12}7-5[24:1]/4-7[24:1],,47,,,,2-5[24:1]/4-2[24:1],,24,,,,2,3,4,3,4,5,4/C,5,6,7b,,,
{12}5^3[12:1],5,5,5h[6:1],,,4,4,4^6[12:1],5^3[12:1],5,5,,,,5/E7,,4,5,,5,4/E3,4,4,5^7[12:1],5,5,5h[6:1],,,4,4,4,5,5/E2,5/E3,5,,,4,4,4^2[12:1],5^7[12:1],,,,,,4^6[12:1],4,4,4h[6:1],,,
{12}5,5,5^3[12:1],4^6[12:1],4,4,,,,4/E3,,5,4,,4,5/E7,5,5,4^2[12:1],4,4,4h[6:1],,,5,5,5,4,4/E8,4/E7,4,,,5,5,5^7[12:1],4^2[12:1],,,,,,
{12}1xh[12:1]/6,6,3xh[12:1]/6,6h[6:1],5xh[12:1],,7xh[12:1]/6,6,6-8[12:1],6/C,,,
{12}3h[6:1],4,4,4h[6:1],5,5,5h[6:1],6,6,6h[6:1],7,7,
{12}3^1[12:1],4,5,3h[6:1],,,3,4,5,4,5/E2,6/E3,
{12}7,6,5,6,5,4,3/6^8[12:1],{24}5,4,{12}5,36,2,1,
{12}3^1[12:1],4,5,3h[6:1],,,3,4,5,4,5,6,3h[6:1],4,5,4h[6:1],5,6,47,{24}6,5,{12}6,4,3,2,
{12}6^8[12:1],5,4,6h[6:1],,,6,5,4,5,4,3,6h[6:1],5,4,5h[6:1],4,3,52,{24}3,4,3,,6,5,6,5,6,,
{12}1xh[12:1],,3xh[12:1],6>1[1:1],5xh[12:1],,7xh[12:1],,,8,7,6,7,6,5,7,6,5,6,5,48,6,51,4,72,6,5,7,63,4,5>8[4:3],,,7,6,5,6,5,4,7,6,5,6,5,4,
{12}25,3,2,17,3,4,2,36,5,4<1[4:3],,,2,3,4,3,4,5,2,3,4,3,4,5,46,5,4,37,4,5,2,37,6,5<2[4:3],,,3,4,5,4,5,6,3,4,5,4,5,6,37,4,5,26,3,4,3,46,5,4>7[4:3],,,6,5,4,5,4,3,6,5,4,5,4,3,
{12}37,26,15,4/8^3[4:1],,,5,6,7,6,7,8,15,48,37,2/6^1[4:1],,,3,4,5,2,3,4,15,48,37,2<5[4:3]/6,,,5,4,3,4,3,2,3,2,1,2,1,8,1,8,7,8,7,6,15,8,7,6<6[1:1]*>6[1:1],,,,,,,,,,,,,,,,,,
{12}B6,,,,,,1bs5[2.32#90:1]*z5[2.32#90:1],,,,,,,,,,2h[384:1],3h[384:1],4h[384:1],,,,,,,,,,6h[384:1],7h[384:1],8h[384:1],,,,,,,,,,2h[384:1],3h[384:1],4h[384:1],,,,,,,,,,6h[384:1],7h[384:1],8h[384:1],,,,,,,,,,2h[384:1],3h[384:1],4h[384:1],,,,,,,,,,6h[384:1],7h[384:1],1bs5b[3.852#54:1]*z5b[3.852#54:1]/8h[384:1],,,,,,,,,,2h[384:1],3h[384:1],4h[384:1],,,,,,,,,,6h[384:1],7h[384:1],8h[384:1]/3,4,5,4,5,6,3,4,5,4,5,6,3,4,5,4,5,6,47,{24}6,5,{12}6,7,6,5,6,5,4,5,4,3,6,5,4,5,4,3,6,5,4,5,4,3,52,{24}3,4,{12}3,2,3,4,
{12}3,4,5,4,5,6,3,4,5,4,15,26,37,4,5,4,5,6,47,{24}6,5,{12}6,7,26,15,48,1,2,35,4,5,6,7,8,17,2,3,4b,,,,,,,,,,,,
{12}1x-5[12:1],4,3x,1,2x,2,8x-4[12:1],5,6,8,7,7,1-4[12:1],1,1,8-5[12:1],8,8,3,{24}3,4,{12}2,1,1,1,8x-4[12:1],5,6x,8,7x,7,1x-5[12:1],4,3,1,2,2,8-5[12:1],8,8,1-4[12:1],1,1,6,{24}6,5,{12}7,8,8,8,1xp5[12:1],4,3x,1,2x,2,8xq4[12:1],5,6,8,7,7,1^4[12:1],2,1,8^5[12:1],7,8,3,{24}3,4,{12}2,1,1,1,8xq4[12:1],5,6x,8,7x,7,1xp5[12:1],4,3,1,2,2,8^5[12:1],7,8,1^4[12:1],2,1,6,{24}6,5,{12}7,8,8,8,
{12}2x^8[12:1],4,3x,25,4x,3,7x^1[12:1],5,6,74,5,6,2^8[12:1],4,3,25,4,3,7^1[12:1],{24}6,5,{12}6,47,5,6,1x^4[12:1],3,2x,15,6x,7,8x^5[12:1],6,7,84,3,2,1^4[12:1],3,2,15,6,7,8^5[12:1],{24}7,6,{12}7,84,3,2,2x-8[12:1],4,3x,25,4x,3,7x-1[12:1],5,6,74,5,6,2-8[12:1],4,3,25,4,3,7-1[12:1],{24}6,5,{12}6,47,5,6,1x-4[12:1],3,2x,15,6x,7,8x-5[12:1],6,7,84,3,2,1-4[12:1],3,2,15,6,7,8-5[12:1],{24}7,6,{12}7,84,3,2,
{12}1x-6[12:1],7,5x,1-4[12:1],3x,5,1x-6[12:1],7,5,1-4[12:1],3,5,1-6[12:1],7,5,1,3,5,24,{24}1,8,{12}1,5,6,7,8x-3[12:1],2,4x,8-5[12:1],6x,4,8x-3[12:1],2,4,8-5[12:1],6,4,8-3[12:1],2,4,8,6,4,75,{24}8,1,{12}8,4,3,2,{12}1x^6[12:1],7,5x,1^4[12:1],3x,5,1x^6[12:1],7,5,1^4[12:1],3,5,1^6[12:1],7,5,1,3,5,24,{24}1,8,{12}1,5,6,7,8x^3[12:1],2,4x,8^5[12:1],6x,4,8x^3[12:1],2,4,8^5[12:1],6,4,8^3[12:1],2,4,8,6,4,75,{24}8,1,{12}8,4,3,3,
{48}26,B2,,,{12}5,4,{48}73,B7,,,{12}4,5,{48}26,B2,,,{12}5,4,{48}73,B7,,,{12}4,5,{48}26,B2,,,{12}5,4,{48}73,B7,,,{12}4,5,26,{24}3,5,{12}4,5,6,7,{48}16,E2,,,{12}5,4,{48}83,E8,,,{12}4,5,{48}16,E2,,,{12}5,4,{48}83,E8,,,{12}4,5,{48}16,E2,,,{12}5,4,{48}83,E8,,,{12}4,5,16,{24}3,4,{12}3,5,6,7,{48}26,1x,8x,,{12}5,4,{48}73,8x,1x,,{12}4,5,{48}26,1x,8x,,{12}5,4,{48}73,8x,1x,,{12}4,5,{48}16,2x,3x,,{12}5,4,{48}83,7x,6x,,{12}4,5,{48}16,2x,3x,,{12}5,4,{48}83,7x,6x,,{12}4,5,16,{24}7,8,7,,25,,3,4,3,,28,,1,1,1,,46,,5,5,5,,
{24}2,4,3,7,5,6,{24}4,5,3,6,{36}1,8,1,{24}2-5[24:1]/7-4[24:1],,,,2b/7b,,,,,,,,
{12}3>5[4:5],4,5,6<4[4:5],,,,,,,,,,,,,,,,,,C,,,
{12}1^6[8:1],2,3,4h[4:1],,,1,2,3h[4:1],4,,,1,2h[4:1],3,4,,,1h[4:1],2,3,4b,,,57,6,6,28,1,1,35,4,4,17,8,8,
{24}3,2,1,8,7,6,25,3,4,5,6,7,1,8,1,8,1,8,2b/7b,,,,,,
{96}1b/5b,B1/B5,,,,,,,,,,,,,,,4b/8b,B4/B8,,,,,,,,,,,,,,,{36}3x,2,1,8,7,6,
{96}1b/5b,B1/B5,,,,,,,,,,,,,,,3b/7b,B3/B7,,,,,,,,,,,,,,,{36}3x,2,1,8,7,6,
{96}1b/5b,B1/B5,,,,,,,,,,,,,,,2b/6b,B2/B6,,,,,,,,,,,,,,,{36}3x,2,1,8,7,6,
{48}5b/1b,2,3,4,,,,,4b/8b,37,26,15,,,,,,,,,,,,,,,,,,,,,,,,,,,,,,,,,,,,,,,,,,,,,,,,,,,,,,,,,,,,,,E
