&title=それでは、また明日
&artist=ASIAN KUNG-FU GENERATION
&first=0
&des=KuSA
&lv_5=13
&inote_5=(175)
{1},,,,,
{16}
4,5,3,,3,,4,,4,,4,,,,5,,5,,4,,,,6,,6,,5,,5,,4,,
5,4,6,,6,,5,,5,,54,,,,6-8[8:1]/4-8[8:1],,,,6/4,,,,2-6[8:1],,,,6/2,,7h[4:1],,,,
5b,,4<8[16:5],,3,,2,,3,,4,,,,5>2[8:1],,7,,6,,,,4<7[8:1],,2,,3,,,,,,
57,,4V61[16:5],,3,,2,,3,,4,,,,5>2[8:1],,7,,6,,,,4<7[8:1],,2,,3,,,,,,
57,,4q8[16:5],,3,,2,,3,,4,,,,5>2[8:1],,7,,6,,,,4<7[8:1],,2,,3,,,,,,
57,,4q1[16:5],,3,,2,,3,,4,,,,5>2[8:1],,7,,6,,,,4,,3,,5,,2-7[8:1]/6-3[8:1],,,,
2b>8[8:4]/6b,,,,,,,,,,,,,,
2,,2,,1,,3,,3,,7,,8,,6,,6,,
4,,3,,2/5,,3,,4/5,,4/5<1[4:1],,,,1>5[4:1],,,,5<3[8:3],,,,1,,,,4,,4,,4,,
5,,6,,4/7,,6,,4/5,,5/4p8[4:1],,,,8p4[4:1],,,,4V27[16:5],,,,7,,,,5,,5,,5,,
1,,2,,3/7,,6,,4/5,,5/4-8[8:1],,,,7-3[8:1],,,,7/1,,2h[4:1],,,,4,3,5,4,6,5,6,5,
7bpp6[8:3],,,,,,4,,4-2[8:1],,,,5,,,,1qq2[8:3],,,,,,4,,4-6[8:1],,,,3,,,,
1>4[8:1],,,,6<1[8:1],,,,3<6[8:1],,,,8,,,,
4pp1[2:1]/7qq2[2:1],,,,,,,,,,,,,,,,
4pp3[8:3],,,,,,1,,1-7[8:1],,,,2,,,,6qq7[8:3],,,,,,1,,1-3[8:1],,,,8,,,,
6-1[8:1],,,,3-6[8:1],,,,8-3[8:1],,,,4,,,,5-2[4:1]/6-1[4:1],,,,,,,,,,8,,3b/8b,,,,
7h[8:1]/5h[8:1],,,,5h[8:1]/4h[8:1],,,,2h[8:1]/4h[8:1],,,,1,,1,,
3-7[8:1],,,,2>5[8:1],,,,6,,6,,7-2[8:1],,,,5,,,,6-3[8:1],,,,8,,8,,
7-2[8:1],,,,5,,,,6q3[4:1],,,,5,,5,,5,,,,
1h[8:1]/4h[8:1],,,,6h[8:1]/3h[8:1],,,,8h[8:1]/5h[8:1],,,,76,,,,6-2[8:1],,,,
8<5[8:1],,,,1,,2,,3-7[8:1],,,,7-3[8:1],,,,3-7[8:1],,,,7-3[8:1],,,,
8qq1[4:1],,,,1b>8[16:5],,,,,,,,1-6[16:2]*-5[8:1],2,3,,,,,,
3,,2>6[4:1],,1,,8,,7,,7h[4:1],,,,
6>3[8:1],,,,6/8-4[8:1],,,,8/2h[4:1],,,,,,6,,4,,
3,,2>6[4:1],,1,,8,,7,,7h[4:1],,,,
6>3[8:1],,,,6/8-4[8:1],,,,8/2h[4:1],,,,,,7,,5,,
3,,2>6[4:1],,1,,8,,7,,7h[4:1],,,,
6>3[8:1],,,,6/8>7[16:5],,,,8/2h[4:1],,,,,,
2w6[8:1],,,,2,,,,8w4[8:1],,,,8,,,,2V48[16:5]/6V47[16:5],,,,2b/6b,,,,,,,,
1,,8,,2/6,,,,
7,,6<2[4:1],,5,,4,,3,,3h[4:1],,,,
2<7[8:1],,,,2/4p8[8:1],,,,4/6h[4:1],,,,,,2,,8,,
7,,6<2[4:1],,5,,4,,3,,3h[4:1],,,,
2<7[8:1],,,,2/4p8[8:1],,,,4/6h[4:1],,,,,,3,,1,,
7,,6<2[4:1],,5,,4,,3,,3h[4:1],,,,
2<7[8:1],,,,2/4q5[16:5],,,,4/6h[4:1],,,,,,
6v1[8:1]*-8[8:1],,,,6,,,,4-2[8:1]*v1[8:1],,,,4,,,,
7<2[8:3]/8p1[8:3],,,,7b/8b,,,,,,,,8,,7,,1>5[4:1],,1,,
5<1[4:1],,,,1>5[4:1],,,,5,,7,,1<5[4:1],,,,5>1[4:1],,,,1<5[4:1],,,,
5,,3,,1-5[8:1],,1,,5pp7[8:1]*qq3[8:1],,,,,,,,4-1[8:1],,,,4/5,,,,
6,,6,,7-3[8:1]/5,,,,1/7,,1,,1,,{24}4,5,6,{1}7b>5[2:5],,,
{16}
2,,5,,4,,7,,
6h[2:4]/5b,,,,,,,,
{16}2,,,,4V63[16:5],,4,,4,,,,,,,,2,,2,,,,,,3h[2:4],,,,,,,,
{24}8,7,6,5h[16:4],,,,,,,,,7,6,5,{16}4h[4:1],,,,,,4,,,,1,,,,
6h[2:4],,,,,,,,1,,,,7V53[16:5],,7,,7,,,,,,,,2,,2,,,,,,3h[8:11],,,,,,,,
{24}8,7,6,5h[4:1],,,,,,,,,4,5,6,7h[4:1],,,,,,{16},,
{32}37,,,,,,15,,,,,,28,,,,{16}3h[4:1]/7-5[8:1],,,,7b,,,,
{16}
4-2[8:1],,,,5,,,,4-2[8:1],,,,5,,,,8-6[8:1],,,,1,,,,8-6[8:1],,,,1,,,,
4-2[8:1],,,,6,,,,4-2[8:1],,,,6,,,,8-6[8:1],,,,2,,,,8-6[8:1]*-2[8:1],,,,,,,,
4-2[8:1]*pp4[8:4],,,,,,,,4-2[8:1],,,,,,,,
8-6[8:1]*pp8[8:4],,,,,,,,8-6[8:1],,,,,,,,
4-2[8:1]*-8[8:1],,,,,,,,4-8[8:1]/7-5[8:1],,,,,,,,
{32}1,,,,,,37,,,,,,46,,,,{16}3v6[8:1]/5,,,,7h[4:1]/3b,,,,5h[4:1],,,,6,,,,
7h[4:1]/8,,,,5,,,,
6/4h[4:1],,,,1,,,,6h[4:1]/2>5[6:1],,,,,,,,
1h[4:1],,,,2,,,,3h[4:1]/4,,,,1,,,,
2/8h[4:1],,,,5,,,,3h[4:1]/7<4[6:1],,,,,,,,
2pp8[4:5],,,,,,,,8h[4:1],,,,,,,,6h[8:2],,,,,,,,4-8[8:1],,,,,,,,
1-5[8:1]/2-6[8:1],,,,2/1,,,,7-4[8:1]/4-1[8:1],,3,,74,,,,8,7,1,6,3,5,4,6,
2,1,3,8,4h[4:1],,,,{16}
2b,,1>5[4:1],,8,,7,,6,,6-1[8:1],,,,4/6-3[8:1],,,,8/6pp5[8:3],,,,2/6,,,,
4,,4,,4,,6,,7<3[4:1],,8,,1,,2,,2-5[8:1],,,,2-7[8:1]/8,,,,2pp5[8:3]/4,,,,
2/8,,,,7,,7,,7,,4,,3<7[4:1],,2,,1,,8,,8-5[8:1],,,,2/8-3[8:1],,,,6/8qq3[8:3],,,,
1/8,,,,2,,1-6[8:1]*-4[8:1],,,,1,,,,7-4[8:1]/3-8[8:1],,,,3/7,,,,
1-3[8:1]/5V37[16:5],,,,1b-7[12:1],,,,,,,,1,,2/7,,3b/6b,,,,
2-5[8:1],,8,,7,,8,,1p5[8:1],,3,,4,,3,,
2q6[8:1],,8,,7,,8,,1-6[8:1],,3,,4,,3,,
2-5[8:1],,1-6[8:1],,2,,1,,2>5[8:1],,1v6[8:1],,2,,1,,
2-4[8:1],,1-7[8:1],,2v5[8:1],,1v6[8:1],,2,,1,,3b,,,,
6<1[8:1],,6,,5,,4,,3<6[8:1],,3,,2,,1,,8>3[8:1],,8,,7,,6,,5,,4,,
3<6[8:1],,,,3/1-4[8:1],,,,7>2[8:1]/1,,,,5-8[8:1]/7,,,,
5/3p8[8:3],,,,3b/6h[1:1],,,,,,,,1,,1,,1,,1,,
{28}1,2,3,4,5,6,7,8,1,2,3,4,5,6,7,8,1,2,3,4,5,6,7,8,1,2,3,4,5,6,7,8,1,
2,3,4,5,6,7,8,1,2,3,4,5,6,7,8,1,{16}2<7[8:1],,5,,7b>3[6:1],,,,,,,,5-8[8:1],,,,4/5,,,,
21,,21,,3-7[8:1]/8,,,,5/3,,5<8[8:1],,5,,{24}1,2,3>5[24:34],{1}4bq3[8:11],,
5p6[8:10]/6<4[8:10],{16},,,,,,,,,,,,5,,5,,3,4,3,5,4,6,5,6,4,5,3,4,3,,
7,1,7,1,6,,6,,3,5,3,5,2,,2,,4,3,5,4,5,4,5,4,5,4,6,5,7,3,4,2,5,4,6,
5,6,7,6,8,6,1,6,2,7-4[8:1]/3-8[8:1],,8,,{2}3b/7b,,,,,,,{8},,,4b,,,,,,,,,,
