&title=高中暗恋的女孩变成地雷妹了
&artist=爱的战士
&first=0.05
&des=Kuronitz
&lv_5=13
&inote_5=(148){4},{1},,,{4},,,3/8<4[2:1],
3,3,3,
3/4<8[2:1],3,3,3,
{1}5<4[2:1]/4>5[2:1],
{8},Cf,{4},,,3h[8:1]/6pp5[2:1],
3h[8:1],{2}2h[4:1],
{4}6h[8:1]/3qq4[2:1],6h[8:1],{2}7h[4:1],
{4}7pp2[2:1],B3,E5,B6,
2qq7[2:1],B6,E5,B3,
6/5-3[8:1],8/5-7[8:1],2/5-3[8:1],8/5,
{1}8V26V84[8:5],
{4}3/4-6[8:1],1/4-2[8:1],7/4-6[8:1],1/4,
{1}4bpp4qq4b[8:5],
{8}2x,3,4,5,{16}6x,7x,8,1,2,3,{8}4,
5xh[8:1],B6,5xh[8:1],B4,5h[8:1],B7,5h[8:1],B3,
4xh[8:1],B5,4xh[8:1],B3,4h[8:1],B6,4h[8:1],B2,
{4}C,6b-3b[8:1]/3b<6b[8:1],{2},{4}8bx/2b-6b[8:1],
2bx/8bx-4b[8:1],{16}8bx/5b>2b[8:1],{8},{16}5bx<8b[8:1],{8},5bx,
{2}1bx-5b[8:1],{16}5,4,6,3,{4}7,
1bx/7b-3b[8:1],7bx/1bx-5b[8:1],{16}1bx/4b<7b[8:1],{8},{16}4bx>1b[8:1],{8},4bx,
{2}8bx-4b[8:1],{4}1bz5b[8:1],Cf,
3h[8:1]/6pp5[2:1],3h[8:1],{2}2h[4:1],
{4}6h[8:1]/3qq4[2:1],6h[8:1],{2}7h[4:1],
{4}7qq2[2:1],B3,E5,B6,
2pp7[2:1],B6,E5,B3,
7/8-2[8:1],5/8-6[8:1],3/8-2[8:1],5/8,
{1}5V36-2-7-1[8:5],
{4}2/1-7[8:1],4/1-3[8:1],6/1-7[8:1],4/1,
{1}5bpp5qq5b[8:5],
{2}5bh[4:3],{4}6,4,
{16}6,5,6,5,{8},{16}3,4,3,4,3,4,5,2,{8},{16}8,
7,6,5,{8},{16}3,4,3,2,3,4,{4}3,
{16}6,5,6,5,{8}6,{16}3,4,3,2,3,4,{4}3,
{8}6,6,6,6,3/C,3,3,3,
7/C,7,7,7,2/C,2,2,2,
8h,8h,8h,8h,1h,1h,1h,1h,
5h,5h,5h,5h,4h,4h,4h,4h,
{4}8<2[2:3],B2,B3,B4,
B5,B6,B7,C,
1>7[2:3],B7,B6,B5,
B4,B3,B2,Cf,
1bx/7b-3b[8:1],7bx/1bx-5b[8:1],{16}1bx/4b<7b[8:1],{8},{16}4bx>1b[8:1],{8},4bx,
{2}8bx-4b[8:1],{16}4,5,3,6,{4}2,
8bx/2b-6b[8:1],2bx/8bx-4b[8:1],{16}8bx/5b>2b[8:1],{8},{16}5bx<8b[8:1],{8},5bx,
{2}1bx-5b[8:1],{4}8bs4b[8:1],Cf,
3h[8:1]/6pp5[2:1],3h[8:1],{2}2h[4:1],
{4}6h[8:1]/3qq4[2:1],6h[8:1],{2}7h[4:1],
{4}7pp2[2:1],B3,E5,B6,
2qq7[2:1],B6,E5,B3,
6/5-3[8:1],8/5-7[8:1],2/5-3[8:1],8/5,
{1}8<5p3[8:5],
{4}3/4-6[8:1],1/4-2[8:1],7/4-6[8:1],1/4,
{1}4bpp4qq4b[8:5],
{8}4,B3,5,B6,{16}C,{8},{16}C,{8},C,
4,B3,5,B6,{16}C,{8},{16}C,{8},C,
1,B2,8,B7,{16}C,{8},{16}C,{8},C,
1,B2,8,B7,{16}C,{8},{16}C,{8},C,
{4}8bx/2b-6b[8:1],2bx/8bx-4b[8:1],{16}8bx/5b>2b[8:1],{8},{16}5bx<8b[8:1],{8},5bx,
{2}1bx-5b[8:1],{16}5,4,6,3,{4}7,
1bx/7b-3b[8:1],7bx/1bx-5b[8:1],{16}1bx/4b<7b[8:1],{8},{16}4bx>1b[8:1],{8},4bx,
{2}8bx-4b[8:1],{4}1bxw5b[8:1],Cf/1b>7b[1:3],
{1},,,,{8},3bx-1-4b[4:1]*pp4b[4:1],
