&title=Persephone
&artist=EBICO
&first=0.049
&des=Humαnφid
&lv_5=14.6
&des_5=Humαnφid
&inote_5=
(185){4},{8},,,,,,,,,,,,,,6b/4,
5/3b,{4}6b/4,{8}7,6-2[16:3],,5,
{4}4-8[16:3],{8}4,3,{4}2,{8}2b/3,4/3b,
5/4b,6,{4}7-3[16:3],{8}7,5-1[16:3],,5,
{4}3-7[16:3],{8}1,2,{4}3h[4:1],{8}5,4/6b,
3/5b,2/4b,3,4,5,4,5,6,
5,6,7,6,5,4,3/5,2/4,
{4}3b/1b,8b/6b,2b/4b,7b/5b,
{8}4/5,4/3,3/2,1/2,{16}1,8,2,7,3,6,4,5,
{8}6/4,{16}6,5,{8}6,4/7,{16}6,5,{8}6,4/7,{16}6,5,
{8}6,7/4,{16}6-4[8:1],5,{8}6,{4}6b/4b-2[8:1],2b/4b,
{8}3/8,{16}2,1,{8}2,3/8,{16}2,1,{8}2,3/8,{16}2,1,
{8}2,3/8,{16}2-8[8:1],1,{8}2,{4}2b/8b-6[8:1],6b/8b,
{8}5/2,{16}3,4,{8}3,5/2,{16}3,4,{8}3,5/2,{16}3,4,
{8}3,5/2,{16}3-5[8:1],4,{8}3,{4}3b/5b-7[8:1],7b/5b,
{8}1/6,{16}7,8,{8}7,1/6,{16}7,8,{8}7,6/1,{16}7,8,
{8}7,6/1,{16}7-1[8:1],8,{8}7,{4}7b/1b-3[8:1],3b/1b,
{1}4<5-8[2:1]/8>1-4[2:1],
{16}2,3,{8}4,{16}3,4,{8}5,{16}4,5,{8}6,{16}5,6,{8}7,
{16}5,4,3,2,1/8,7,6,5,8,7,6,5,4,3,2,1,
4,3,2,1,5,4,3,2,8/1,7,6,5,4,3,2,1,
2/8,3,4,5,6/1,5,4,3,2/6,3,4,5,6/1,5,4,3,
{4}6/2,{16}3,4,3,4,{4}5b/2b,{16}6,5,6,5,
{4}7b/4b,{16}6,5,4,3,{4}2b/5b,{16}3,4,5,6,
{12}4/7,3,2,1/5,6,7,8/4,3,2,5/1,6,7,
3,3/4,{48},{16}6,{8}6/5,{16}3,4/2,,6,{8}7/5,{16}4,4/5,,,2h[8:1],
7,6,5,2,4,3,7,5,6,4,5,{4}3,
{16}3/5,,,6/4,,,{8}4/3,{16},6/5,,,{4}5b/4b,
{16}6h[8:1],4,3,2,7,8,6,2,1,3,7,5,{4}6,
{16}6/4,,,3/5,,,{8}5/6,{16},3/4,{48},,,,,,{24}5b,4,5,4,{12}5,
{16}3h[8:1],6,7,8,2,1,3,7,8,6,2,4,{4}3,
{16}6/3,5,4,3/6,5,4,3/6,5,4,3/6,5,4,{4}6b/3b,
{16}6h[8:1],2,3,4,7,5,6,2,4,3,6,5,{4}7-2[8:1],
{16}7b/3-6[0.2432##0.1622],,,3b/8-5[0.2432##0.1622],,,{8}8b/4-1[0.2432##0.1622],{16},4b/6,{48},,,,,,{24}5b>4>3>2<1<8<7<6>5[2:3]*-8>1-4[2:3],4,5,4,5,4,
{1}5,
{8},,,,,,5,4,
{4}3-5[8:1],3,{8}8,1-7[8:1],,1/3-5[8:1],
,2/3,{4}2-6[8:1],2/4-8[8:1],4,
{8}1h[4:1]/3h[4:1],,,7-3[4:1],,,,,{2}5-3[8:1],
{4}8-2[8:1],4-8[8:3],
{8}4h[8:3],,,,,3<6[8:1],6<1[8:1],1>4[8:1],
,,,,{4}5-7[8:1],5-3[8:1],
{8}5-1[0.4865##0.4865],,,5h[8:3],,,,,{4}2h[2:1],
{16}5,6,7,8,{2}1-5[8:1],
{16}4-8[0.2432##0.2432],,,8-2[0.2432##0.1622],,,{8}2-6[0.1622##0.2432],{2}6-4[0.2432##0.1622],
{16}7,6,{8}5,{16}6,5,{8}4,{16}5,4,{8}3,{16}4,3,{8}2,
{16}6-2[0.2432##0.2432],,,2-8[0.2432##0.1622],,,{8}8-4[0.1622##0.2432],{2}4-6[0.2432##0.1622],
{16}2,3,{8}4,{16}3,4,{8}5,{16}4,5,{8}6,{16}5,6,{8}7,
{16}5h[8:1]/7h[8:1],,,6h[8:1]/4h[8:1],,,{8}5h[8:1]/3h[8:1],{16},4h[8:1]/2h[8:1],,,{4}1/5,
{16}4h[8:1]/2h[8:1],,,3h[8:1]/5h[8:1],,,{8}4h[8:1]/6h[8:1],{16},5h[8:1]/7h[8:1],,,{4}4/8<4>8[4:5],
{2}8,{8}4-8[0.6486##0.3243],{16},,,,4,4,
{4}4,{16},,,,,,,,2,8,4,6,
2,8,4,6,{4}7/3,{8}4b/8b,6b/2b,,1h[8:1]/5h[8:1],
,8b/4b,{4}6b/2b,{16}3,5,1,7,3,5,1,7,
{8}6h[8:7]/2h[4:1],,,2h[2:1],,,,,2/6,
,,3/7,,1/5,{4}7h[4:1]/3-7[8:3],
{8}3h[8:5],,,,,6,7,8h[8:9],
,,,,{4}4v2[8:1],4v6[8:1],
{8}4w8[0.4865##0.1622],,,4,{16},,,,8,1,8,1,
{8}8h[8:5],,,5h[8:3],{16},,,,8,5,8,5,
8b<5[0.2432##0.1622],,,5b>2[0.2432##0.1622],,,{8}2b<7[0.1622##0.1622],{4}7,1-3[4:1],
3-5[4:1],5-7[4:1],7-1[4:1],1,
{16}6b-3[0.2432##0.1622],,,2b-7[0.2432##0.1622],,,{8}5b-8[0.1622##0.1622],{4}1b-4[8:1],7-5[4:1],
5-3[16:3],3-1[0.2432##0.4054],1-7[4:1],7,
{8}5,4,3,2,7,6
||这是一个标记~
,5,4,
{16}3,4,2,5,1,6,8,7,5,6,4,7,3,8,2,1,
2,3,2,4,2,5,2,6,2,7,2,8,2,1,2,8,
2,7,2,6,2,5,2,4,2,3,2,4,2,5,2,6,
{4}2/7,3h[8:1]/6h[8:1],{8}4/5,3/6,,2h[8:1]/7h[8:1],
{16},,6,3,5,4,6,3,5,4,6,5,7,4,8,3,
{8}1h[4:1]/2h[4:1],,,3h[4:1]/8h[8:3],,,{4}1-3[8:1]*-7[8:1],
1-5[8:1],1>4[8:1]*<6[8:1],1w5[8:1],1,
{16}3,6,2,7,1,8,2,1,3,8,4,7,3,5,2,6,
1,7,2,8,3,7,4,6,{8}4h[12:1]/7h[12:1],7h[12:1]/4h[12:1],3h[12:1]/8h[12:1],3h[12:1]/8h[12:1],
2h[12:1]/5h[12:1],2h[12:1]/5h[12:1],1h[12:1]/6h[12:1],6h[12:1]/1h[12:1],7h[12:1]/2h[12:1],3h[12:1]/8h[12:1],4h[12:1]/1h[12:1],5h[12:1]/8h[12:1],
4h[12:1]/7h[12:1],3h[12:1]/6h[12:1],2h[12:1]/5h[12:1],6h[12:1]/3h[12:1],{4}4h[12:1]/5h[12:1],{16}5,4,5,4,
5-3[0.2432##0.1622],,,3-7[0.2432##0.1622],,,{8}7-1[0.1622##0.1622],{2}1-5[0.1622##0.2432],
{16}3,4,3,2,3,4,3,2,3,4,3,2,3,4,3,2,
3-5[0.2432##0.1892],,,5-1[0.1892##0.2973],,,{8}1-7[0.2162##0.1622],{2}7-3[0.1622##0.2432],
{16}6,5,6,7,6,5,6,7,6,5,6,7,6,5,6,7,
{8}6,3,3/4,3,3/5,3,3/6,3,
3/7,7,7/2,7,7/1,7,7/8,7,
{16}7,6,7,5,7,4,7,3,7,2,7,1,7,8,7,1,
7,2,7,3,7,4,7,5,7,6,7,5,7,4,7,3,
{1}7bV14[2:1]/2bV85[2:1],
{16}5,4,5,4,5,4,5,4,6,3,6,3,6,3,6,3,
6,5,4,3/6,5,4,6/3,5,4,6/3,5,4,{4}6/3,
{16}4,5,4,5,4,5,4,5,3,6,3,6,3,6,3,6,
{8}4/5,{16}3,3/4,,6,{8}6/5,{16}3,2/4,,6,{12}7/5,{24}4,5,4,5,
{8}4,{16}6,5,7,3,4,2,7,8,6,2,1,3,7,5,
6,3,4,2/5,6,5,8/4,3,4,1/5,6,5,{4}8/4,
{16}5,6,4,6,3,6,2,6,4,6,3,6,2,6,1,6,
8b-4b[0.2432##0.1622],8b,,6b-2b[0.2432##0.1622],{8}6b,{16}5b-1b[0.2432##0.1622],5b,,3b-7b[0.2432##0.1622],{8}3b,{16}2b,2b,,,{1}5<6<7>8>1>2>3<4[4:11]/4-1<8-5[4:11],
E
