&title=Everything Burns
&artist=Tom Morello / Beartooth
&first=0
&des_1=ASZ
&des_2=ASZ
&des_3=ASZ
&des_4=ASZ
&des_5=ASZ
&lv_5=13+
&des_6=ASZ
&des_7=ASZ
&des=ASZ
&inote_5=(180){128},,,{4},,,,
{4}3>1-5[2:1],7,7,7,
{4}6>4-8[2:1],2,2,2,
{4}4-8V26[4:3],7,7,7,
{4}8-4V62[4:3],3,3,3,
{4}5x,{8}4,5h[8:1],3,5h[8:1],2h[4:1],,
{4}1x,{8}8,1h[8:1],7,1h[8:1],6-2V84-8V26[1:1],,
{8}6/4xh,3xh,5h,5h,5h,5h,5h,5h[8:7],
{8}A6,E8,E4,A2,,,
{4}1bs5b[4:1],
{4}1b/6xh[4:1],{8},6,1,2,3,7,
{8}8/4,1,8/4,5,8-4[8:1]/4,1,8/4x,3x,
{4}6x/2bh[4:1],{8},2,4,5,6,8,
{8}1/5,4,1/5,8,1-5[8:1]/5,4,1/5,6,
{4}3x/7bh[4:1],{8},3/7,2,3/7,4,,
{8}5/6,2,3/4,1,4/6,2,3/5,1-5V37-3V51[1:1],
{8}4,5,6,6,6,6,6,6,,
{8}8b,7b,6b,5/8,5/1,5/2,5/3,
{4}4,{8}5-7[8:1],5,E3,,4-6[8:1],4,,3-1[8:1],3,,E7,,5/3,3,
{4}3h[4:1],{8}1-7[8:1],1,E3,,1x,2x/8x,,E4,2x/8x,1x,E3,5,6,7,
{4}8,{8}1-3[8:1],1,E7,,8-2[8:1],8,,7-5[8:1],7,,E3,,1/7,7,
{4}7h[4:1],{8}5-3[8:1],5,E7,,5x,4x/6x,,E8,4x/6x,57x,Ch[2:1]/1,1,1z5[3:1],1,
{4}1b,,{8}8,8,8s4[3:1],8,8,,3z7[3:1],,5,,5<3[2:1],,
{4}4,4,4>6[2:1],5,5,5,4-2[8:1],6-2[8:1],
{4}Cf,{8}1-3[8:1],8,7/1,,1-7[8:1],2,3/1,,1-3[8:1],7,6/1,,1/2,3,6bx,
{16}4,5,4,5,4,5,4,5,4,5,4,5,4,,
{16}8xh[2:1]/3x,,{8},,,,5,1<5[8:1]/8>4[8:1],,
{96}1b/8b-2v3V57-1[8:6]/D1f,D8/D2,E8,E2,D7/D3,E7,E3,D6/D4,E6,E4,D5f/E5,,,{8},,,,,,,
{8}2,3/4,2,1/7,6,5/4,6-8[8:1],7/1,
{4}6/4-2[8:1],6-2[8:1],6/Cf/4,{8}6-8[8:1],7/1,
{4}6/4-2[8:1],6-2[8:1],{8}6/Cf/4x,4x,4x<3b[6:1],,
{48}4b,E5,E6,E7,E8,E1,E2,E3,E4/A3/A4/D4f,,,,{8},,4/6,7,8/1,2,
{8}3/5,6,7/1,6,4/5,3,2-5[8:1]/8,5-1[8:1],
{8}2,,6-2[8:1],5,4/6,,6-2[8:1],5,
{8}4/6,,6-2[8:1],5,4/6,,{16}1x/8x,1x/8x,2x/7x,,
{8}4/5,4,4-8[8:1],4,3/4,3,3-7[8:1],3,
{8}2/3,1,8-4[8:1]/6,7,4/8,3,2,1,
{8}5/3,4,4v7[8:1],4,6/4,5,5-2[8:1],5,
{8}5/7-4[8:1],6,7/1-5[8:1],2,1/8v3[8:1],7,8/2,,
{8}2/8,1,1,1,7/5,6,6,6h[4:1]/C,
{8},8,1,6,7,1,2,5,
{8}4h[4:1]/3,,8,5/4h[4:1],,1,6s2b[8:6]/5h[4:3],,
{4},,,3-1b[8:1],
{32}A6/3bpp6[8:8],E7,E8,A8,,,,,{8},1,1,,,7x,,,5x-8[8:1],,5xv2[8:1],,5,3,
{4}4h[8:3],{8},5,2,,8h[8:3]/6,,,5,7/1,,1x/3,2x,1x-3[8:1]/7,1,
{32}7qq4[8:6]/1b,E7,E6,A5,,,,,
{8},8,8,,1,3,
{8}5,3,1,1,1x/8h[8:3],7x,5x-1V37-3V15[8:8],3x,
{8}6,6,6,6,4,4,4,4,
{8},3b/6h[8:2],1b,7b,{16}5b,6,5,,4b,3,4,,
{16}1x,1x,8x,,{8}1x-5[8:1],,3,,4,2h[4:3]/E6,,E8,,E2,,E4,6,,
{8}6h[4:1]/3,,8,,6h[4:1]/3,3,8,,3h[4:1]/6,,1,,{16}3,,8,8,1-5[8:1],,,,
{8}1/3,,1<3[4:1],,1/7,,1,E7,,E5,,E3,,E1,6,,6/5h[4:1],,1,,6x/4h[8:1],3x<1[2:1],,2x,
{4},,5z1[3:1],4,
{4}3bq2[2:1],,{8}8,8,8s4[3:1],8,8,,3z7[3:1],,5,,5<3[2:1],,
{4}4,4,4>6[2:1],5,5,5,4-2[8:1],6-2[8:1],
{4}Cf,{8}1-3[8:1],8,7/1,,1-7[8:1],2,3/1,,1-3[8:1],7,6/1,,1/2,3,6bx,
{16}4,5,4,5,4,5,4,5,4,5,4,5,4,,
{16}8xh[2:1]/3x,,{8},,,,5,1<5[8:1]/8>4[8:1],,
{4}1bx/8bx-2v3V57-1[1:1],,,2h[8:3],,4h[8:3],,8h[8:2]/5,6,7h[8:3]/1,,5h[8:3]/3,,1h[8:3]/4,{8},3,8/2,,
{4}1<3[4:1],1/3,8<3[4:1],8q4[8:1]/2,8v5[8:1],8-6[8:1],8,,
{8}8>6[4:1],7,8/6,,1>6[4:1],8,1p5[8:1]/7,,1v4[8:1],3,1-3[8:1],,1,,,,
{8}1-3[8:1]/1?-4[8:1]/3,7,1,,8-6[8:1]/8?-5[8:1]/6,2,8>6[8:3],,7,7,7,,8qq6q2[8:13],,,,
{4}4xqq2q6b[4:3],,,,
{8},,,3,3,3,3h[4:1],,{48}E3f,E2/B2/A2,E1/B1/A1/D2,E8/B8/A8/D1,E7/B7/A7/D8,E6/B6/A6/D7/D6,{8},
{8}3x<7[4:1],2,1,,
{8}4x<8[4:1],3,2,,
{8}5x<1[4:1],4,3,,6x,5,
{16}4x/6,,3,4,3,,3,,
{16}5x/3,,6,5,6,,6,,
{16}4x/6,,2,3,2,,2,,
{16}5x/3,,7,6,7,,7,,
{16}1,8,1,,1,7,1,,1,6,1,,1,5,1,,
{16}8,2,8,,8,3,8,,8,4,8,,8,5,8,,
{16}5,6,5,6,5,7,5,7,5,8,5,8,5,1,5,B2h[16:1]/B6h[16:3]/E3h[16:5]/E7h[16:7]/B3h[16:9]/B7h[16:11]/Ch[16:13],
{8},,,,,,,
{8},Cf/A1/B1/D1/E1/A2/B2/D2/E2/A3/B3/D3/E3/A4/B4/D4/E4/A5/B5/D5/E5/A6/B6/D6/E6/A7/B7/D7/E7/A8/B8/D8/E8,,
{8}1/7,1/7,4,2/8,5,1/7,5/6,3/4,7,5/6,2,3/4,
{8}6v1[8:1],7,8h[4:1]/B6f,,6-2b[8:1],5,4b/Cf,,
{8}6v1[8:1],7,8h[4:1]/B6f,,6-2b[8:1],5,4bw8[6:1]/Cf,4b,
{4}4b,Cf/B2/B3/B5/B6/E3/E6/E4/E5/D3/D6,
{8}2/8,2/8,3/4,7/8,
2-8[8:1]/6-4[8:1],4/8,2/6,,3-5[8:1]/7-1[8:1],1/5,3/7,,
{8}6v1[8:1]/5,3/4,6/7,,6-2b[8:1]/5,3/4,6/1,,
{8}6v1[8:1]/5,3/4,6/7,,6-2b[8:1]/5,3/4,6/1,,
{16}1b/8b,1b/8b,2b/7b,,
{4}2/8p4[8:1],1q5[8:1]/8,7-2[8:1]/1,{8}7/5-1[8:1],4,6-2[8:1]/5,7,6/3-8[8:1],4,3/6,4,5,6,
{8}1-6[8:1]/7,2,1-4[8:1]/3,2,1-6[8:1]/7,8,1-4[8:1]/3,2,4V63-7-1[2:1]/1,,6,,{4},
{4}5-3[8:1]/5?-2[8:1],5-7[8:1]/5?-8[8:1],5,{8}4h[8:5]/6h[4:1],,,C,,1,7,1,3h[8:3],5,5,5,1,,5/6,8,,3/4h[4:5],1,,
{24}8b,1,,,{24}8b,1,,,{24}8b,1,,,{24}8b,1,,,{24}8b,1,,,
(72){60}8bw4b[60:5],(72){60}1w5[60:4],,,
(180){4},,Cf/B1/B2/E2/B7/B8/E8/E4/E6,
{4},1qq5[4:3],,2,3,
{4}4qq8[2:1],{8},7,7,,4h[8:3],,,8,2h[8:4]/6,7,
{8}1x,3x,5x>7b[4:1],,{48}7b/5,A4,D4/E4,A3,D3/E3,A2,D2/E2,A1,D1/E1,A8,D8/E8,A7,
{8}6,5h[8:2],8,2,4/6h[16:13],,{16}7x,8,1,2,,,5x,4,3,2,,,1x-4v6qq4pp6-1[1:1]/6,7/2x,8/3x,1,
{8}5,5,5,5,5,5,5,5,,
{8}5,4,3,1/5,4<5p1b[8:1]/8>1p5[8:1],2/6,4/8,
E
