&title=Graze The Roof
&artist=Laura Shigihara
&first=0
&des=种子
&lv_1=0
&inote_1=(120)
{16}8,,1,1,2,,1,,,,1,,,,1,,
{16}8,,1,1,2,,1,,,,1,,
{16}1/4,,5,,6,,7,7,6/2,,3,,4,,4,,
5-8[2:1],,
{8}6,7,8h[16:1],1,2,1,,
{8}8<4[2:1],8,7,
{16}6,6,5,,6,,,,6,,,,6,,
{16}6,,4,4,2,,4,,6,,4,4,3/7,,6/2,,
{16}1h[8:1],,,1,
{8}8h[8:1],6h[8:1],4h[8:1],,
{16}2/6,,5/1,,8/4<8[8:1],,8>4[8:1],
{16},4q1[8:1],,,,5,
{16},5,,,,,,4,,5,5,4h[8:1],,3,,2,,2,,8-4[8:1]b,,1/7,,1-5[16:1]b/8,,2,,1,,
{32}8,1,2,3,,4,5,6,7-3[16:2]b,,
{16}7w3[16:1],6,8,7,,,,.
{16}E3,B4,B2,,C1fh[8:1],,,,,,
{16}5,,4,,7/B3,,8/B1,1,8,,E4,,8,,8/E6,,7,,6/B2,,
{16}5b/B1,,1b/C1fh[8:1],1b,1b,,B6/1b,,B5,,1b/B5,,B4,,B4/1b,,
{16}3,4,3,2,5,1,6,8,7,6,7,6,8,1,5,2,4b,,
{16}3-7[8:1]/4,4,3/4,,2-6[8:1]/3,,2,,2/1-5[8:1],,1,,1/8,,1/8,,
{16}8-4[8:1]/1,8,1/8,,7-3[8:1]/8,,6,,7/6-2[8:1],,6,,5/6,,5b,,
{16}5/4,5,4/5,,5/4,,
{16}3,2,1/8,7,6,5,4/3,,
{8}4b/5b,7b/8b,4b/5b,1b/2-6b[8:1],4b/1-5[8:1]b,8-4[8:1]b/2b,8b/1b,8b/7b,
{32}6b>6[8:1],7,8,1,2,3,4,5,6,
{32},
{16},,,1b,,,,
{16}8,1,8,,
{64}1,8,7,6,5,4,3,2,1,8,7,6,5,4,3,2,1,,,
{16},
{64}1b,2,3,4,5,6,7,8,1,2,3,4,,,,,,
{8},
{8}1,1,
{32}1,2,3,,2,3,4,,3,4,5,,4,5,6,,5,6,7,,,,
{16},1,,1,,
{32}5/8,7,6,5,4/7,6,5,4,3/6,5,4,3,2/5,4,3,2,1/4,,,,
{8},8,4,8-4[2:1],
{32}8,,8,,8,7,6,,4,3,2,,7,6,5,,3,2,1,,
{8}4-6[8:1],4-2[8:1],4-7[8:1],4-1[8:1],4-8[8:1],,,,
{8}3v5[4:1],3,4v6[4:1],C,5-1[16:1],C,,,
{16}4,8,3,7,7>7[2:1]/3,8>8[2:1]/4,1>1[2:1]/5,6/2>1[16:7],3<1[16:6]/7,,,,7,8,1,2,3,4,5-1[11:16],,
{16}1,,5,6,5,,8,,,,8,,,,8,,2,,4,3,4,,2,,,,2,,
{16}1/2,,8/1,,7/8,,,7/5,,,5/4,,,4/2,,,1-4[8:1]/8-5[8:1],,5/4,,1/8,,
{8},,,3b/6b,,7b/2b,,
{16}1,,
{32}1,2,3,,
{8}3h[8:1],5h[8:1],7h[8:1],1h[8:1],8h[8:1],7,
{4}7-3[8:1],6-2[8:1],5-1[8:1],,
{16}2h[2:1],,,1,,,8,,7h[4:1],,,,6h[4:1],,,,5h[2:1],,,4,,,3,,2h[4:1],,,,1h[4:1],,,,
{32},,,,8,7,6,,
{8}4h[8:1],2h[8:1],1h[8:1],8h[8:1],7h[8:1],6,
{4}7b/6b,5b/4b,3b/2b,1b/8b,
{32}8,,,3,4,3,,,4h[8:1],,,,
{8}5h[8:1],6h[8:1],7h[8:1],8h[8:1],,
{4}8,8,8,8,
{8}4,3,5,6,2h[4:1],,7h[4:1],,
{8}1,2,8,7,3h[4:1],,6h[4:1],,
{8}2,4,6<2[4:1],4,2>4[8:1],,4-8[1:1],,,,,,,,,,
{16}1,1,B5,,1,,1,,1h[8:1],,,,1h[4:1],,B5,,
{16}5,5,B1,,5<7[4:1],,5,,5>3[4:1],,,,
{8},,8,B4,7,B3,6,B2,5,B1,4h[8:3],
{16}8,8,8,,8,,5,,1-5[16:1],5,1,,1,,
{16}3,4,3,2,1,,1,2,3,,4,,5,,1,,2,1,2,3,4,,4,5,6,,7,,2,,4,,
{16}3,2,3,4,5,,5,6,7,,7,,6,,5,,
{16}6,5,6,3b,6,5,6,2b,8,4,2,8,1,8,7,6,
{16}3x,4,3,2x,1,,1x,2,3x,,4,4x,5,,1x,,2x,1,2,3x,4,,4x,5,6x,,7,7x,2,,4x,,
{16}3x,2,3,4x,5,,5x,6,7x,,7,7x,6,,5x,,
{16}1b,,5,5,1b-5[2:1],,5,,1b,
