&title=BLACK SHOUT
&artist=Roselia
&first=0.03
&des=Dragr0wl
&lv_5=雷蛇
&lv_6=天照
&inote_5=(185){1},,,{4},,,
{8}3?-6[8:1],A3h[4:1],,,
{16},6/8,7,8,1/7,8,1,2/8,1,2,1/3,2,
{36}4,3,5,4,6,5,7,6,8,7,1,8,2,1,3,2,4,
{72}4,3,5,4,6,5,7,6,8,7,1,8,2,1,3,2,4,3,5,4,6,5,7,6,8,7,1,8,2,1,3,2,4,
{144}3,7?-3[6:1],5,,4,,6,,5,,
{24}7bhx[6:1],,,,,,,,,,
{48}B7,C,B3,,
{16},,3/5,4,5,6/4,5,6,7/5,6,7,8/6,7,8,1/7,8,1,2/8,1,2,3/2?-5[16:1]/1,2,3,,7?-4[16:1]/A6h[64:15],,,,
{4}2?-7[16:1]/A3h[64:15],7?-2[16:1]/A6h[64:15],3?-8[16:1]/A3h[64:15],,
{32}E7,B7,B8,E1,,,,,B2,A2,D3,A3,D4,E4,B3,B2,B2/3?^6[12:1],A2,D3,A3,D4,E4,,,
B2,C,B6,A6/3?^6[12:1],,,,,,,,,B2,C,B6,,
{16}7h[8:11]/7?-3[16:3],,,,,,,,
{24}2,D3,3,D4,4,B4,C,B2,{48},2,D3,3,D4,4,B4,C,B2,2,D3,3,D4,4,B4,C,B2,2,D3,3,D4,4,B4,C,B2,
E
&inote_6=(185){1},,,{4},,,
2?-6[16:3]/A2h[4:1],
{16}2h[32:12],,,,,,,3,4,5/7?-3[32:6],6,7bhx[32:9],,,,,
{32}6/3h[16:3],5,4,D3,2,1,8,7,6h[16:3]/3,4,5,D6,7,8,1,2,3,4/5,4/5,3/6,2/7,1/8,1/8,2/7,3/6,,,,,,,,
6h[16:7]/3,4,5,D6,7,8,1,2,3,4,5,D6,7,8,1,2,3h[16:3],5,4,D3,2,1,8,7,6h[16:3],4,5,D6,7,8,1,2,3,E4/E8,B4/B8,Ch[32:6],,,,,
,,B1/B5,1/5,4/8,3/7,2/6,1/5,8/4,B4/B8,Ch[16:2],,,,,A2,
2?-5[16:1]/D3,A3,A2,D3,A3,,,,7?-4[16:1]/A6h[64:15],,,,,,,,
{4}2?-7[16:1]/A3h[64:15],7?-2[16:1]/A6h[64:15],3?-8[16:1]/A3h[64:15],,
{32}E7,B7,B8,E1,,,,,B2,A2,D3,A3,D4,E4,B3,B2,B2/3?^6[12:1],A2,D3,A3,D4,E4,,,
B2,C,B6,A6/3?^6[12:1],,,,,,,,,B2,C,B6,,
{16}7h[8:11]/7?-3[16:3],,,,,,,,
{24}2,D3,3,D4,4,B4,C,B2,{48},2,D3,3,D4,4,B4,C,B2,2,D3,3,D4,4,B4,C,B2,2,D3,3,D4,4,B4,C,B2,
E
