&title=Valhalla:0
&artist=Juggernaut.
&first=0.03
&lv_5=14
&des_5=Taxchan
&des=Taxchan
&inote_5=
(200){4},,,,,,,,{1}5x/4x>5[4:15],
,,,4>5[2:7]*q5[2:7],
{4},,,,,,,,,,,,3x/6x,
6,6,6,
7,7,7,{16}1,8,1,8,
{4}1,3,3/5h[4:1],3,
2/6h[4:1],2,2/7h[4:1],{8}2,2,
8/1,8,7,7,6,6,5,5,
5/1,1,2,2,3,3,4,4,
{16}5,4,6,3,7,2,8,1,7x,4,7,2x,5,2,7x,4,
{1}7p6>7[4:3],
{4}4x,4,4,4,
5,5,5,5,
3,3,3,3,
6,6,7,7x/1x,
{8}7/1,7,6/2,2,5/3,5,{16}3,4,{8}3,
4/6,6,7/3,3,8/2,8,{16}2,7,{8}2,
{16}1,8,2,7,3,6,{8}4,{32}2x/7x,3x,{16}4x,{32},,7x/2x,6x,{8}5x,{32}1x/7x,2x,{16}3x,
8h[16:3],,,7h[16:3],,,{8}6h[16:3],{16},4h[16:3],,,{4}5b,
5bh[8:1]/2bh[8:1],{8}3/4,3,2/1-6[8:1],8,2,3,
1/8-5[8:1],7,1,2,3,{24}8,7,6,{4}4x/5x,
4h[8:1]/7h[8:1],{8}3/5,5,6/1-5[8:1],5-2[8:1],1,7,
{4}8<5[8:1]*>3[8:1],8,{8}4x,4,{4}6/5,
4bh[8:1]/7bh[8:1],{8}6/5,6,7/8-3[8:1],1,7,6,
8/1-4[8:1],2,8,7,6,{24}1,2,3,{4}5x/4x,
5h[8:1]/2h[8:1],{8}6/4,4,3/8-4[8:1],4-7[8:1],8,2,
3x,{16}5,5,{8}4,6,7/1,1,8/2,8,
{4}4bh[8:1]/7bh[8:1],{8}5/6,6,7/8-3[8:1],1,7/8,{16}6,6,
{8}1-4[8:1],2,8/1,{16}7,7,{8}1,{32}1x,E2,B2,B3,{4}5x/E4,
5h[8:1]/2h[8:1],{16}6,5,{8}6,3/8-4[8:1],4-7[8:1],8,{16}1x,2x,
{8}3x,{16}5,5,{8}2,2,7,7,3/5,3,
{4}5bh[8:1]/2bh[8:1],{8}4/3,3,2-7[8:1],{16}7,7,{8}2,8,
3-6[8:1],{16}6,6,{8}3,7,{4}4w8[8:1],4x,
6h[8:1]/2h[8:1],{16}1,8,{8}2,7-2[8:1],3,7,3,
1x,{16}3,4,,2,{8}1,{16}7-4b[8:1],8,,8,{4}7,
3x/5x,{8}1,{16}2,2,{4}4xh[4:1],{16}3,4,2,5,
{8}3xh[8:1],{16}5,3,4,2,{8}5xh[8:1],{16}3,4,3,4,{8}2xh[8:1],8xh[8:1],
B2/B1,B6/B5,B3/B4,B7/B8,2xh[8:1],5xh[8:1],{16}3,5,3,5,
2,4,2,4,{8}1xh[8:1],{16}4,2,4,2,{8}5xh[8:1],3,3,
{4}4/6,{8}8,{16}7,7,{4}5xh[4:1],{16}6,5,7,4,
{8}6xh[8:1],{16}4,6,5,7,{8}4xh[8:1],{16}6,5,6,5,{8}7xh[8:1],1xh[8:1],
B7/B8,B3/B4,B6/B5,B2/B1,7xh[8:1],4xh[8:1],{16}6,4,6,4,
7,5,7,5,{8}8xh[8:1],{16}5,7,5,7,{8}4xh[8:1],6,6,
{16}6h[8:1]/2h[8:1],,,4h[8:1]/8h[8:1],,,{8}7h[8:1]/3h[8:1],{16},1h[8:1]/5h[8:1],,,{8}2/6,2/6,
{16}3h[8:1]/7h[8:1],,,2h[8:1]/6h[8:1],,,{8}5/1,{4}8-3[8:1]/4-7[8:1],4x/8x,
{16}4,6,{8}4,3,{16}7,1,{8}7,6,5/4,3,
8,8,3/7,{16}3,5,,6,{8}4,8/3,2,
7h[8:1],{16}1,7,,,{8}2h[8:1],{16}8,2,,,{8}3/6,4/5,
3h[8:1],{16}5,3,,,{8}6,{4}6<1[8:1]/2>5[8:1],2x/6x,
{1}4-6-8q2[4:3],
{16}7xh[8:3],,,5,,,{8}2h[8:3],{16},4,,,{4}8w4b[8:1],
{32}8V64V28z4[2:7],Cf,{1},,,{4},,,{16},,,{4}2h[1:1],
{8},,,,5,5,
{4}5h[1:1],{8},,,,3,3,
{4}3h[1:1],{8},,,,7,7,
{1}Cfh[1:1],
{4}3x,3,3,3,
2,2,2,{16}8,1,8,1,
{4}8,6,6/4h[4:1],6,
7/3h[4:1],7,7/2h[4:1],{8}7,7,
1/8,1,2,2,3,3,4,4,
4/8,8,7,7,6,6,5,5,
{16}4,5,3,6,2,7,1,8,2x,5,2,7x,4,7,2x,5,
{1}2q3<2[4:3],
{4}5x-1[8:1],4,3-7[8:1],2,
1-5[8:1],8,7-3[8:1],6,
5-1[8:1],4,3-7[8:1],2,
1-5[8:1],8,8-3b[8:1]/7-4b[8:1],8x/7x,
{8}2/8,2,3/7,7,4/6,4,{16}6,5,{8}6,
5/3,3,2/6,6,1/7,1,{16}7,2,{8}7,
{16}8,1,7,2,6,3,{8}5,{32}7x/2x,6x,{16}5x,{32},,2x/7x,3x,{8}4x,{32}8x/2x,7x,{16}6x,
1h[16:3],,,2h[16:3],,,{8}3h[16:3],{16},4,,,{4}5b/Cf,
{8}6b/4b,{16}4,6,,6,{8}7,{16}7,8,,8,{8}1,1,
3/5,{16}5,3,,3,{8}2,{16}2,1,,1,{8}8,8,
4/6,{16}6,8,,8,{8}2,{16}2,4,,4,{8}6,6,
5/3,{16}3,1,,1,{8}7,{16}7,5,,5,{8}3,3,
7/1,{16}6,5,,5,{8}4,{16}4,3,,3,{8}2,1,
2/8,{16}3,4,,4,{8}5,{16}5,6,,6,{8}7,8,
1/7,{16}7,5,,5,{8}3,{16}3,1,,1,{8}7,7,
8/2,{16}2,4,,4,{8}6,{16}6,8,,8,{8}2,2,
3b/7b,{16}4,6,4,6,{8}4,{16}8-4[8:1],2,,2,{8}8,1,
6/2,{16}5,3,5,3,{8}5,{16}1-5[8:1],7,,7,{8}1,8,
3/7,{16}4,6,4,6,{8}4,{16}7-3[8:1],1,,1,{8}7,8,
6/2,{16}5,3,5,3,{8}5,{16}2-6[8:1],8,,8,{8}2,1,
3/7,{16}4,6,4,6,{8}4,{16}8-4[8:1],2,,3,{8}8,1,
6/2,{16}5,3,5,3,{8}5,{16}1-5[8:1],7,,6,{8}1,8,
3/7,{16}4,6,4,6,{8}4,{16}7-3[8:1],1,,2,{8}7,1,
{16}2h[16:3],,,3h[16:3],,,{8}4h[8:1],6-2b[8:1],5,{4}6x,
{8}1b/3b,{16}3,8,4,7,{8}5,{16}6/4v1[8:1],6,,3,{8}4,2,
7x/8x,{16}6,1,5,2,{8}4,{16}3/5v8[8:1],3,,6,{8}5,7,
2x/1x,{16}3,8,4,7,{8}5,{16}6/4q1[8:1],6,,3,{8}4,2,
7x/8x,{16}6,5,,3,{8}4,{16}5v2[8:1]*q1[8:1],3,{8}6,{4}5,
{8}3x/4x,{16}2,5,1,6,{8}8,{16}7/1v4b[8:1],7,,2,{8}1,3,
6x/5x,{16}7,4,8,3,{8}1,{16}2/8v5b[8:1],2,,7,{8}8,6,
3x/4x,{16}2,5,1,6,{8}8,{16}7/1p4b[8:1],7,,2,{8}1,3,
6x/5x,{16}7,8,,2,{8}1,{16}8w4b[8:1],2,{8}7,{4}8,
6b/2bz6[4:1],7,8-4[8:1],4,
6/2s6[4:1],7,8-4[8:1],4,
3/5<1[4:1],4,3>7[4:1],6,
5V71[4:1],3,4V28[4:1],6x,
{8}5,5,3,3,7,7,1,1,
2/8,8,7/3,3,4/6,6,5/3,3,
{16}4,5,3,6,2,7,1,8,{32}2x,3,4,5,6,7,8,1,2x/6x,5,4,3,2,1,8,7,
{16}6xh[8:1]/2xh[8:1],,,4h[8:1]/8h[8:1],,,{8}3h[16:1]/7h[16:1],1/2,3/4,5/6,7/8,
{4}6-1b[8:1]/2-5b[8:1],{32}2b/6b,Cf,
E
