&title=Verse X
&artist=Yu_Asahina
&first=0
&des=7.3GHz vs mxtax
&lv_5=XX
&des_5=7.3GHz vs mxtax
&inote_5=
(205){4},,,,{16},,{24}1,
2,3,4,5,6,7,8,1,2,3,4,5,6,7,8,1,2,3h[4:3],,,{8}4,
5,6,7,8,1b-3-6[8:3],,,,,,,{2}7h[4:1]/3-7v5[8:3],
{8},,,6h[8:3]/4p5-8[16:9],,,,,,,{4}7,
6,5,
{24}7/1h[8:1],6,5,4,,,{8}8,2,{24}7/3h[4:1],6,5,4,,,,,,{8}1,
{24}7/8,6,5,4,,,{8}1/7,1,{24}2/8h[16:7],3,4,5,{48},,,,,,,,,,,,,{16}2,
,7,{48},,,2/6h[4:1],,3,,4,,{16}5,,2,,7,{48},,,8/2,,3,,4,,{16}5,{48},,,2/1,,3,
,4,,{16}5,,2/8,,8,{48},,,7/1,,6,,5,,4,,3,,2,,{16}1w5[8:1],,,,1b,
,,,2,6,4,5-1[0.3659##0.1463],1,,,,5/7,,,,2qq7[4:1]/6qq3[4:1],
,,,,,,,,,Cf/1s5[4:1],,,,,,,,7-1-3[16:3],
,6,,7,,4,,4-7-5-1[8:3],,,,4/8,,,,8,
7,6-2[8:1],,,,6/1-5[8:1],,,,1/7,,7-3[8:1],,,,7/5,
,2bh[4:1],{48},,,,,,,,,,,,,,,7b/8b,,6/1,,2/5,,{16}3/4,{48},,,,,,,,,2bpp5[16:11]/1bqq6[16:11],,3/8,
,7/4,,{16}5/6,,,,,,,,,,,,,,,,7h[8:1]/8h[8:1],
,,,6h[8:1]/2h[8:1],,,,3,4,3,,4,5,4,
,5,6,5,,6,7,6,,7,8,7,,8,1,8,
,,,2b/7b,,5/3,,4,3,4,,3,2,3,,2,
1,2,,8/3,,7-1-3[16:3],5,7,5,7,,4,,4-8[8:1],,,,4/7,
,7,6,5-2[8:1],,,,5/1,,8-6[8:1],,1,,8-4[8:1],
,5,,8,,1,2,3>8[8:1],,,,3/7h[8:3],,,,6,
5,4-8[8:1],,,,6,,6,,5/1,,2-8-6[4:1],4,2,4,2,
,5,,5-8[8:1],,,,5/1,,,,1,2,3-7[8:1],,,,3/8,
,1-3[8:1],,8,,1-5[8:1],,4,,1,,,,8,
7,6<1[8:1],,,,6/2h[4:1],,,,3,4,5,,5-1[8:1],,,,,,,,2b,
2,3,,,,6,5,6,5,7,
5,6,5,6,5,7,5,6,5,6,5,7,5,6,5,6,
5,7,6,5,4,3,4,3,4,2h[8:1],,8,1,8,1,7h[8:1],
,1,8,1,8,2h[8:1],,7,8,7,8,6h[8:1],,8,7,8,
7,1h[8:3],,,,,,4b,3,4,3,5,5x,3,4,3,
4,2,2x,4,3,4,3,5,,3,4,3,4,2,1,8,
7,8,7,1,1x,7,8,7,8,6,6x,8,7,8,7,1,
1x,7,8,7,8,6,6x,8h[8:3],,7,6,5-2[8:1],,,,5/1-6[8:1],
,,,1/3>8[8:1],,,,3/8,7,6-1[8:1],,,,6/1,2,3-8[8:1],
,,,3/8,7,6,5,4,3,2w6[8:1],,,,2<7[8:1],,,,2,
,,,4>6[4:1],6,3,5,2h[4:1],,,,,,,,5/1-5[8:1],
,,,6,7,8>3[8:1],,,,4-2-5[16:3],,4,,5-3-8[16:3],
,6,,6,,7,,7,6,5/1b,{48},,,,,,,,,2b/8b,,3/7,,4/6,,{16}5,
{48},,,,,,,,,1b/7b,,6/2,,3/5,,{16}4,,2/6,,2/6,{48},,,,,,,,,2b/1b,,3/8,,7/4,,{16}5/6,
{64},,,,B3f,B4f,C,B7f,{8}B6f,,7/3,{4}3/7,{16}2,3,5,4,
7,6,1,8,3,2,5,4,{4}3/1-6[8:1],{8}1,7>2[8:1],
,7,{16},4,,3,{8}3,5-7[8:1],{24},,,5,,4,
,3,,2,,1>4[6:1],{48},,,,,,,,,,,,{16}1,,,8,,7,{48},,,6,,5,
,4,,3,,6,,5,,4,,3,,6,,5,,4,,3,,{16}Cf/6b<2b[16:37]*>2[16:37],{1},,{4},,,{16}E2,
E3,E4,E5,E6,E7,{8}1-5-7[4:1],,1/8>3[8:1],
,8,,6,{4}6-1-3[4:1],{8}6,4,
{4}4-8[8:1],{8}4/8,7,6-2[8:1],5-1[8:1],6,5,
,7,{4}7/2-4-1[16:3],{8}2,8-5-7[16:3],,8,
{4}1-5-3[16:3],{8}1,6-1-7[16:3],,6/4,3,2-8[8:1],
,2,7,6-4[8:1],8,6,1,2-4[8:1],
5,2,6,7-1[8:1],3,7,{4}5q2[16:3],
{24}5/2>5[8:1],1,8,7h[8:3],,,,,,,,,,,,{8}1/8-6[8:1],,2/8-4[8:1],
{16},,8/3,2,{4}1s5[16:3],{8},,7,7,
{16}8/1,7,6,5,{8}4/2h[4:1],{16}1,8,7,6,{8}5,{16}3,4,3,5,
4,5,2,4,2,6,4,6,{4}8b-5[8:1]*-3[8:1],8,
{8}2,2,{16}1/8,2,3,4,{8}5/6,{16}2/7,3,4,5,{8}6/8,
{4}8z4[8:1],{16}8/2<7[8:1],,,2x,{8}2,{16}5x,5<8[8:1],,,1x,5,
,2>5[8:1],,,,2,{8}6x<1[8:1],{32},,,,6/2,3,4,5,,2,3,4,{8}5,
{16},1h[16:1],,1h[16:1],,4h[16:1]/2h[16:1],,2h[16:1]/4h[16:1],,7h[16:1]/5h[16:1],,7h[16:1]/5h[16:1],,7h[16:1]/5h[16:1],,4h[16:1]/8h[16:1],
,4h[16:1]/8h[16:1],,8h[16:1]/4h[16:1],,3,1,3,1,3,1,2,2,2,2,2,
1/3,,,8/4,,,{8}7/5,{16},6/4,,,{8}5/3,1bh[16:33],
,,,,E7,E6,E5,E4,
E3,E2,{16}B8,B7,{8}B6,{16}Ch[16:39],,,,,,,B2,
,B8,,B3,,B7,,B5,,,,,,,,,{8}B5,
B3,B6,B2,{16}B8,,,,,,,B7/B2/B6f/B3f,
,,,8/1,{4}1/8,2/4,2/4,
2/4,{16}2/E4,B4,B5,E6,{4}1,{8}8<5[8:1],B2f/E2f/E3f/A2f,
8,3h[8:1],{4}7h[2:1],2pp5[2:1],2,
8-4[8:1],8>3[8:1],8<5[8:1],8,
{8}E4f/D4,E3f/D3,{4}8h[2:1]/E2f/D2,{24},,,,,,1b,2,3,4V28[4:1],,,,,,,,,{4}7-5-3[4:1],
{16},,,,8,,,1,
,,{8}2,{4}3-5[0.439##0.1463]/6-2[0.439##0.1463],{8},3/6,,1,
1-4[8:1],8,{4}1,5-1[8:1]/8-6[8:1],8/5>7[4:1],
,3v5[16:3],{16},,,7v1[16:3],,,,2,
,2>5[8:1],,,,2/7,,,,8<4[8:1],,,,8/3,,,,2>6[8:1],
{48},,,,,,,,,2/6,,7,,8,,{16}1-5[8:1],{48},,,6x,,7,,8,,{16}1,{48},,,,{12}7,7,
4,4,{48},{16}5,3,6/2b,{48},,,,,,{12}1,8,2,{48}7,,,3,,,{16}6,4,
5,4h,4h,4h,{4}4V28[4:1],8V64[4:1],4V68[4:1],
8z4[4:1],4<8[4:1]*>8[4:1],,B8f/A8f,
,5-7[8:1],5/3-1[8:1],{8}3/6-8[8:1],5,
6/2-4[8:1],1,2/7-4[8:1],8,{4}7/2v5[8:1],1<6[8:1]/2>5[8:1],
2/1-5-7b[1.4634##0.2927],{48}D7,E7,B6,C,B3,E3,{8}D3,,,,,,,{4}1/3x-7-1-5b[1.1707##0.5854],
,,,3>5b[1.1707##0.2927],
,,,3,
{32}E4,E3,E2,E1,E8,E7,E6,E5,{4}Cfh[4:1],
{8}7,8<5[8:1],{16},,1/8,2,{4}3-8[8:1],{16}3b,,,7-4[8:1],
,,{8}2,{16}2-5[8:1],,,6-1[8:1],,,{8}6,{16}3-8[8:1],,,7,
,,{8}6,{24}1,2,3,4,,,8,1,2,3,,,7,6,5,3/4x,5,6,
7,8,1,2,3,4,{4}7bh[16:39]/5h[16:39],,,,,,,,,,,,,,4/5h[8:11],
,1h[8:7],{24},,,,,,,,,,,,,,,,,,1/5,
2/6,3/7,4/8,{48},,,,,,,,,,,,,,,,{16}7/3b<6b[0.439##0.1463],,,1b/5,
,,{8}7/3b,{16}8b,1,2,3,{8}4,{16}1b,8,7,6,{8}5,
{16}2b/6b,3/5,4,5/3,{8}6/2,{16}7b/3b,6/4,5,6/4,{8}3/7,{32}2bh,1h,8h,7h,6h,5h,4h,3h,
{4}2h,{16}6b/2b,1/7,8,7/1,{8}2/6,{16}3b/7b,2/8,1,2/8,{8}7/3,
{16}1b/8b,2/7,3/6,7/2,{8}8/1,{16}2b/7b,3/6,4/5,6/3,{8}7/2,{16}8b,7/1,2/6,5/3,
{4}4,{16}2b,3,5/4,6,7/1,2,3/4,5,6/1,2,3/5,6,
{4}7/1h[4:1],{24}7,8,7,8,,,,,,1,6,1,{8}6,{24}1h,2h,3h,
8/4h,7,6,5/4,3,2,{8}1,{24}E5,B5,B6,{8}E7,{24}B4,C,B8,{8}A8,{24}E4,B3,B2,
{16}E2,,,7-5[8:1],,7,,2-4[8:1],,2,,1,,1,8,7,
6,5/3,,4b,,,,7/8h[32:1],{32},,,,1h,2,{16}3,{32},,7h,6,{16}5,2-4[0.2195##0.1463],
,,{8}2,{16},8-6[0.2195##0.1463],,,8/1-5[0.2195##0.1463],,,1,,7-5[8:1],,4,
,7,,2,3,4,5,7,6,7,,2,3,2,,6,
6,5,,3,3,4,{32},,6h,7h,8h,1h,{16}2h,{32},,2h,1h,4/8h,7h,{16}6h,{8}4-8[8:1],
4,4b/7,{32},,,,2b,3,4,5,6,7,8,1,2,3,4,5,6,7,8w4[8:1],1,2,3,4,5,
6,7,{16}8b,,,,,,1,8,2-7[8:1]/7v4[8:1],,,,7/2<2[4:1],{32},,,,,,2x,
E2,E1,E8,E7,E6,E5,E4,{16}E3,,8,7-2[8:1],6,,,{4}7/3-6[8:1],
3/8-6[8:1],8/5-2-4[16:3],5/8-5-7-4[16:5],8,
{16}1v4-2-5[16:5],,,1h[16:1],,,{8}7,{4}7v6[16:3],{24}7/4,3,2,1,,,1,
2,3,4,,,5/8,4/7,3/6,2/5,,,2/5,3/6,4/7,5/8,6,7,8,1,2,3-7[8:1],,,,,,{8}6/3b,
,8,{4}8v5[8:1],8-6[8:1]/2v5[8:1],
8/2-8[8:1],2-5[8:1],2/7w3[8:1],7,
{8}1,1-6[8:1],,1,{16}5,5,5,5,{4}5,
{16}7,3,8,2,{4}1-4[8:1],{24}5/1,6,7,8,1,2,{8}3-8[8:1],4x,
{16}3x,,,,,5/6-8[8:1],{8}5/6,{16},6/2-4[0.2195##0.1463],,,2-6[0.2195##0.1463],,,2-8[0.2195##0.1463],
,,{8}2,{16},,7,6,{4}5/8b>3[8:1],{16}8/7,,,B5/B6,
,,{8}B1/B2/Ch[16:11],{16},,,,,,,,,7x,{8}B7,
{16}2x,B2,8x,B8,,,{8}1,1,2,{24}3,5,3,5,,,4-8[8:1],
6,4,6,{48},,,,,,,,,,,,,,,,{16}2b,4,1,8,5,7,2,4,
1,8,5,7,{4}2bh[8:1],{16}7,5,6,4,5,3,4,2,
3,1,8,2,7,3,6,4,{24}5,6,7,8,,,1/8,2,3,4,,,7,
6,5,4/1,5/2,6/3,{4}7h[4:1]/4h[4:1],{8},6h[4:1]/2h[4:1],{24},,,,,,6/2,
3/7,4/8,5/1,2,3,{4}4bh[4:1],2-5[8:1],{8}2,8h[8:1],
,B6/B5/A5/D6/A6/E6f,{16},E2f/B2/B1/A1/D2/A2,,,E8f/B7/B8/A8/A7/D8,,,E4f/B4/B3/A3/D4/A4,{48},,,,{12}E6f/D6f,E7f/D7f,
D8f/E8f,{24}D1f/E1f,{96}5b,,,4,,,{32}3,2,{4}1h[4:1],{32}E1f,B8,B7,E7,{16}A6,{32}E5,B4,B3,E3,{16}A2,{32}A7,E7,B6,B5,
{24}1bx/E5,2,3bx,4,5bx,6,7bx,8,1bx,2,3bx,4,{16}5bx/8,7,5,4,8,7,3,2,
8b,,,2b/6b,,4bh[#2.268295],{32},,,,,,,,E8f,B7f,B6f,B5f,E5f,B4f,B3f,B2f,{8}E2f,
{32}B4f,B5f,E6f,B6f,Cf,B7f,E8f,B8f,{8}B1f,{32}A7f,E8f,B7f,B6f,E6f,Cf,B1f,E2f,,,,,E2f,B1f,B8f,E8f,Cf,E4f,B4f,B5f,
{8}E6f,{32}B1f,B8f,E8f,B7f,Cf,B6f,E6f,B5f,{8}B4f,{32},,,,,,,,,,,,D8f,E8f,Cf,E4f,
D4f,D2f,E2f,Cf,E6f,D6f,B7fh[16:29],B6fh[16:29],B2fh[16:29],B3fh[16:29],{1},{4},,,{16},{8}E8/C/E4/E6/E2,
E
