&title=エージェント夜を往く
&artist=LindaAI-CUE feat.双海亚美
&first=0.14
&des=Tokachi
&lv_5=13
&inote_5=(178)
{1},,,,,,
{8}3/4,4/2,,5/6,5/7,,3/4,4/2,
{8},5/6,5/7,,E2,,E7,,
{8}2/1,1/3,,8/7,8/6,,2/1,1/3,
{8},8/7,8/6,,E4,,E7,,
{8}3/4,4/2,,5/6,5/7,,3/4,4/2,
{8},5/6,5/7,,B2,,B6,,
{8}2/1,1/3,,8/2h[2:1],7,6,5,4,
{8},3b/4b,Cf,,5b/6b,Cf,,,
{8}8pp5[2:1]/4,,4,,4,,4,,
{8}4/5x,3,2/8,7,3-8[8:1]/5,,7-4[8:1],,
{8}2v5[8:1],,2pp5[4:5],,,,,,
{8},,,,E8,,E7,,
{8}6pp5[2:1]/4,,4,,4,,4,,
{8}4/5x,6,7/1,2,6-1[8:1]/4,,2,2qq5[8:13],
{1},
{4},,B6,E7,
{4}6pp8[2:1],4,4,4,
{4}3qq1[2:1],5,5,5,
{8}6-1[8:1],,5,5-2[8:1],,6,6<1[8:1],,
{8}5,5v2[8:1],,6,6-1[8:1],,4h[2:1],,
{8}8b,,6b,,,,,5h[8:3]/1b,
{8},,3b,,6/4,7,1/8,2,
{8}3-8[4:1]/5,,6,,7,,7b,7bV52[8:5]/1hx[8:7],
{4},,,,
{8}1x>4[4:1],,5,,5,,5b,5bpp1[8:5]/3xh[8:3],
{8},,,3b,,,,,
{8}B4,B3,B2,B1,4x,3x,2x,1x,
{8}B5,B6,B7,B8,5x,6x,7x,8x,
{8}B1,B2,B3,B4,1x,2x,3x,4x,
{8}8-6[8:1],,1,1-5[8:1],,,7b,,
{8}B3,B2,B1,B8,3x,2x,1x,8x,
{8}B4,B5,B6,B7,4x,5x,6x,7x,
{8}B8,B1,B2,B3,8x,1x,2x,3x,
{8}7-5[8:1],,8,8-4[8:1],,6,6b,,
{4}2/5,2/5,2/6,2/6,
{4}2/7,2/7,2/8,2/8,
{8}2h[8:7],3,4,5,6,7,8,1,
{16}2x,3x,4x,5x,6x,7x,8x,1x,{32}2hx[1024:1],3x,4x,5x,6x,7x,8x,1x,2x,3x,4x,5x,6x,7x,8x,1x,
{8}2x/Cf,,2b-4[8:1]/1b-5[8:1],,2b/1b,,,3>8[8:1],
{8},3,7-5[8:1],6,1-4[8:1],2,6v8[8:1],5,
{8}4qq4[8:3],,5pp4[2:1],5,,,3x,,
{8},2v5[8:1],,2,1<6[8:1],,1,,
{8}4b-1[8:1],,7,7b-4[8:1],,2,2b-7[8:1],,
{8},5<8[8:1],6,2v4[8:1],3,7-5[8:1],6,3v8[8:1],
{8}2,,4,4<7[8:1],,3,3-8[8:1],,
{8},5-7[8:1],4x-8[8:1],5-1[8:1],4-2[8:1],5-7[8:1],4,5,
{8},,7b-5[8:1]/8b-4[8:1],,7b/8b,,,6<1[8:1],
{8},6,2-4[8:1],3,8-5[8:1],7,3v1[8:1],4,
{8}5pp8[8:3],,3qq8[2:1],3,,,7x,,
{8},7v4[8:1],,7,8>3[8:1],,8,,
{8}5b-8[8:1],,2,2b-5[8:1],,7,7b-2[8:1],,
{8},4>1[8:1],3,7v5[8:1],6,2-4[8:1],3,,
{8}6b,6b-8[8:1],,5b,5b-1[8:1],,6b,6b-2[8:1],
{8},5b,5b,,{16}2x,6x,3x,5x,4hx[4:1],,,5x,
{16}5hx[8:3],,,,,,4hx[4:1],,,,5hx[8:1],,4xh[4:1],,,5x,
{16}5hx[8:3],,,,,,4hx[8:1],,7x,3x,6x,4x,5hx[4:1],,,4x,
{16}4xh[8:3],,,,,,5hx[4:1],,,,4hx[8:1],,5hx[4:1],,,4x,
{16}4xh[8:3],,,,,,5hx[8:1],,4x,4hx[8:1],,5x,5x,5hx[8:1],,4x,
{16}B5,B6,B7,B8,B1,B2,B3,B4,B5,B6,B7,B8,B1,B2,B3,B4,
{32}E6,E7,E8,E1,E2,E3,E4,E5,E6,E7,E8,E1,E2,E3,E4,E5,E6/Cf,,,,,,,,{8}3/5,4/2x,
{8},4/6,5/7,,5/3,4/2,,4/6,
{8}5/7,,E7/B6,,E2/B2,,8/2,1/3,
{8},1/7,8/6,,8/2,1/3,,1/7,
{8}8/6,,E7/B7,,E4/B3,,5/3,4/2,
{8},4/6,5/7,,5/3,4/2,,4/6,
{8}5/7,,E7/B6,,E2/B2,,8/2,1/3,
{8},8/2h[2:1],7,6,5,4,,3b/5b,
{8}Cf/8x,,4b/6b,Cf/1x,,,4b/7b,,
{8}2b>4[8:1]/1bq5[8:1],,2b/1b,,,3v8[8:1],
{8},3,7<5[8:1],6,1v4[8:1],2,6-8[8:1],5,
{8}3qq4[8:3],,5pp4[2:1],5,,,3,,
{8},2>5[8:1],,2,1v6[8:1],,1,,
{8}4b>1[8:1],,7,7b<4[8:1],,2,2b<7[8:1],,
{8},5-8[8:1],6,2>4[8:1],3,7v5[8:1],6,3>8[8:1],
{8}2,,4,4<7[8:1],,3,3-8[8:1],,
{8},5<7[8:1],4xq8[8:1],5p1[8:1],4>2[8:1],5<7[8:1],4,5b,
{8},,7b<5[8:1]/8bp4[8:1],,7b/8b,,,6<1[8:1],
{8},6,2>4[8:1],3,8v5[8:1],7,3-1[8:1],4,
{8}6pp1[8:3],,4qq1[2:1],4,,,8x,,
{8},7<4[8:1],,7,8v3[8:1],,8,,
{8}5b<8[8:1],,2,2b>5[8:1],,7,7b>2[8:1],,
{8},4-1[8:1],3,7<5[8:1],6,2v4[8:1],3,,
{8}7b,7b-5[8:1],,8b,8b-4[8:1],,7b,7b-3[8:1],
{8},8b,8b,,{16}1x,,1x,,2b,,2b-4[8:1],,,,1b,,
{16}1b-5[8:1],,,,2b,,2b-6[8:1],,,,1b,,1b,,8x,,
{16}8x,,8x,,8b,,8b-4[8:1],,,,1b,,1b-5[8:1],,,,
{8}8b,8b-4[8:1],,1b,1bw5[8:1],,,,
E
&inote_6=(178)
{1},,,,,,
{8}3/4,4/2,,5/6,5/7,,3/4,4/2,
{8},5/6,5/7,,E2,,E7,,
{8}2/1,1/3,,8/7,8/6,,2/1,1/3,
{8},8/7,8/6,,E4,,E7,,
{8}3/4,4/2,,5/6,5/7,,3/4,4/2,
{8},5/6,5/7,,B2,,B6,,
{8}2/1,1/3,,8/2h[2:1],7,6,5,4,
{8},3b/4b,Cf,,5b/6b,Cf,,,
{8}8-5[2:1]/4,,4,,4,,4,,
{8}4/5x,3,2/8,7,3-8[8:1]/5,,7-4[8:1],,
{8}2v5[8:1],,2pp5[4:5],,,,,,
{8},,,,E8,,E7,,
{8}6pp5[2:1]/4,,4,,4,,4,,
{8}4/5x,6,7/1,2,6-1[8:1]/4,,2,2qq5[8:13],
{1},
{4},,B6,E7,
{4}6pp8[2:1],4,4,4,
{4}3qq1[2:1],5,5,5,
{8}6-1[8:1],,5,5-2[8:1],,6,6<1[8:1],,
{8}5,5v2[8:1],,6,6-1[8:1],,4h[2:1],,
{8}8b,,6b,,,,,5h[8:3]/1b,
{8},,3b,,6/4,7,1/8,2,
{8}3-8[4:1]/5,,6,,7,,7b,7bV52[8:5]/1hx[8:7],
{4},,,,
{8}1x>4[4:1],,5,,5,,5b,5bpp1[8:5]/3xh[8:3],
{8},,,3b,,,,,
{8}B4,B3,B2,B1,4x,3x,2x,1x,
{8}B5,B6,B7,B8,5x,6x,7x,8x,
{8}B1,B2,B3,B4,1x,2x,3x,4x,
{8}8-6[8:1],,1,1-5[8:1],,,7b,,
{8}B3,B2,B1,B8,3x,2x,1x,8x,
{8}B4,B5,B6,B7,4x,5x,6x,7x,
{8}B8,B1,B2,B3,8x,1x,2x,3x,
{8}7-5[8:1],,8,8-4[8:1],,6,6b,,
{4}2/5,2/5,2/6,2/6,
{4}2/7,2/7,2/8,2/8,
{8}2h[8:7],1,8,7,6,5,4,3,
{16}2x,3x,4x,5x,6x,7x,8x,1x,{32}2hx[1024:1],3x,4x,5x,6x,7x,8x,1x,2x,3x,4x,5x,6x,7x,8x,1x,
{8}2x/Cf,,2b-4[8:1]/1b-5[8:1],,2b/1b,,,3>8[8:1],
{8},3,7-5[8:1],6,1-4[8:1],2,6v8[8:1],5,
{8}4qq4[8:3],,5pp4[2:1],5,,,3,,
{8},2v5[8:1],,2,1<6[8:1],,1,,
{8}4b-1[8:1],,,7b-4[8:1],,,2b-7[8:1],,
{8},5<8[8:1],6,2v4[8:1],3,7-5[8:1],6,3v8[8:1],
{8}2,,4,4<7[8:1],,3,3-8[8:1],,
{8},5-7[8:1],4x-8[8:1],5-1[8:1],4-2[8:1],5-7[8:1],4,5,
{8},,7b-5[8:1]/8b-4[8:1],,7b/8b,,,6<1[8:1],
{8},6,2-4[8:1],3,8-5[8:1],7,3v1[8:1],4,
{8}5pp8[8:3],,3qq8[2:1],3,,,7x,,
{8},7v4[8:1],,7,8>3[8:1],,8,,
{8}5b-8[8:1],,,2b-5[8:1],,,7b-2[8:1],,
{8},4>1[8:1],3,7v5[8:1],6,2-4[8:1],3,,
{8}6b,6b-8[8:1],,5b,5b-1[8:1],,6b,6b-2[8:1],
{8},5b,5b,,{16}4x,4x,4x,4x,4hx[4:1],,,5x,
{16}5hx[8:3],,,,,,4hx[4:1],,,,5hx[8:1],,4xh[4:1],,,5x,
{16}5hx[8:3],,,,,,4hx[8:1],,5x,5x,5x,5x,5hx[4:1],,,4x,
{16}4xh[8:3],,,,,,5hx[4:1],,,,4hx[8:1],,5hx[4:1],,,4x,
{16}4xh[8:3],,,,,,5hx[8:1],,4x,4hx[8:1],,5x,5x,5hx[8:1],,4x,
{16}B4,B3,B2,B1,B8,B7,B6,B5,B4,B3,B2,B1,B8,B7,B6,B5,
{32}E4,E3,E2,E1,E8,E7,E6,E5,E4,E3,E2,E1,E8,E7,E6,E5,E4/Cf,,,,,,,,{8}3/5,4/2x,
{8},4/6,5/7,,5/3,4/2,,4/6,
{8}5/7,,E7/B6,,E2/B2,,8/2,1/3,
{8},1/7,8/6,,8/2,1/3,,1/7,
{8}8/6,,E7/B7,,E4/B3,,5/3,4/2,
{8},4/6,5/7,,5/3,4/2,,4/6,
{8}5/7,,E7/B6,,E2/B2,,8/2,1/3,
{8},8/2h[2:1],7,6,5,4,,3b/5b,
{8}Cf/8x,,4b/6b,Cf/1x,,,4b/7b,,
{8}2b>4[8:1]/1bq5[8:1],,2b/1b,,,3v8[8:1],
{8},3,7<5[8:1],6,1v4[8:1],2,6-8[8:1],5,
{8}3qq4[8:3],,5pp4[2:1],5,,,3,,
{8},2>5[8:1],,2,1v6[8:1],,1,,
{8}4b>1[8:1],,,7b<4[8:1],,,2b<7[8:1],,
{8},5-8[8:1],6,2>4[8:1],3,7v5[8:1],6,3>8[8:1],
{8}2,,4,4<7[8:1],,3,3-8[8:1],,
{8},5<7[8:1],4xq8[8:1],5p1[8:1],4>2[8:1],5<7[8:1],4,5b,
{8},,7b<5[8:1]/8bp4[8:1],,7b/8b,,,6<1[8:1],
{8},6,2>4[8:1],3,8v5[8:1],7,3-1[8:1],4,
{8}6pp1[8:3],,4qq1[2:1],4,,,8x,,
{8},7<4[8:1],,7,8v3[8:1],,8,,
{8}5b<8[8:1],,,2b>5[8:1],,,7b>2[8:1],,
{8},4-1[8:1],3,7<5[8:1],6,2v4[8:1],3,,
{8}7b,7b-5[8:1],,8b,8b-4[8:1],,7b,7b-3[8:1],
{8},8b,8b,,{16}1x,,1x,,2b,,2b-4[8:1],,,,1b,,
{16}1b-5[8:1],,,,2b,,2b-6[8:1],,,,1b,,1b,,8x,,
{16}8x,,8x,,8b,,8b-4[8:1],,,,1b,,1b-5[8:1],,,,
{8}8b,8b-4[8:1],,1b,1bw5[8:1],,,,
E
