&title=バッドエンド・シンドローム
&artist=アリスシャッハと魔法の楽団
&first=0
&des=おにねこ
&wholebpm=126
&lv_5=13+
&inote_5=(126)
{1},
{4},,,,
{12}
2h[12:3],,,4h[12:2],3h[12:2],,5h[12:2],4h[12:2],,6h[12:2],5h[12:2],,
7>5[8:3],,,7h[12:6],,,,,,5,,,
3,4,3,6,4,6,1,{24}4,5,6,,5,,,,,,{12}
6,5,6,3,5,3,8,{24}5,4,3,,45,,,,,,
{12}
5/6h[8:2],,,4h[8:2],,5,5h[8:2],,,3h[8:2],,
4,4<7[8:1],,,1>4[16:2],,,4<7[16:2],,,,,,
3h[8:2],,,5h[8:2],,4,4h[8:2],,,6h[8:2],,
5,5>2[8:1],,,6<1[8:1],,,1q5[16:2],,,,,,
7h[8:2],,,5>2[8:1],,8,8<5[8:1],,,5>2[8:1],,
,8<5[8:1],,,1>4[16:2],,,4<7[16:2],,,1-5[8:1],,,,,,
3V52[8:2]/7,,5,5,,,7V52[8:2],,5,5,,,1V75[8:2],1,5,5-2[8:1],,,,,,8/1h[8:2],,,
6V48[8:2],,4,4,,,2V48[8:2],2,4,4,,,7>4[8:2],,,4-8[8:1],,,8<2[16:4],,,,,
,,1,1,5h[8:4],,,,,,1h[8:2],,,2h[8:2],,,3h[8:2],,,4q5[8:2],3,6,
4/5p4[16:5],,,,,,8,,,6,,3,4,,4,5-1[8:1],,6,5,,,8q1[8:2],,,
8/1p8[8:2],,,,,,4,,,3,,6,5,,5,4-8[8:1],,3,4,,,1qq8[16:3],8,2,1b,,,5qq4[16:3],,,6b,,,8h[8:2],,1,1h[8:2],,6,6h[8:2],,3,3>6[8:2],,,6<3[32:7],,,4w8[8:1],,,,,,
25,4,3,47,5,6,1b/5,,,34,2,2,4,1,1,4<8[16:3],8,8,4,,,2,2,4,5,5,7,1,1,4,35,,,
65,7,7,5,8,8,5>1[16:3],1,1,5,,,7,7,5,4,4,2,8p6[8:8],4p2[12:11],6,2b,,,,,,,,,,,,,,,,,,,,,,,,
1/7h[8:2],,,2h[8:2],6,5,4pp6[8:1],,,4qq2[8:1],,,
8,,,7h[8:2],3,4,5qq3[8:1]*pp7[8:1],,,5,,,1h[8:2],,,6h[12:2],,5,65,45,43,2qq2[8:2],6,6,
2b>5[8:1],,,5V74[16:3],,6,4>1[8:1],,,1>7[16:4],,4,4,,,8p4[8:1],,,4V61[16:3],3,2,1-5[8:1],,,
4>1[8:1],,,8-4[8:1],7,6,5<8[8:1],,,1,2,3,
4b/5b,6,1,3b/4b,7,2,4b/5b,8,3,5b/6b,7,2,
3/4V62[32:7],,,2<7[8:1],3,4,5>2[8:1],,,5,,,
6/5V38[32:7],,,7,6,5,4q8[16:2]*<7[8:1],,,4>1[8:1],,,1>7[8:2],,,7p1[8:2],,8,8,,,
6<1[8:1],,1,6-2[32:4],,2,6,,3,7,5,5,1-5[8:1],3,3,
1b>4[8:1],,,4-1[16:2],,5,5-8[8:1],,,8V64[16:3],,4,4<7[8:1],,,3-7[16:2],2,1,8>3[8:1],,,5-1[8:1],,,
5/2>5[8:1],,,6-2[8:1],7,8,1<6[8:1],,,4,3,2,
1b/8b,7,4,2b/1b,6,3,1b/8b,5,2,8b/7b,6,3,2pp5[8:3]/1,,,,,7,7>2[8:1],,,7<4[8:1],,,7qq4[8:3],,,
3,2,1,8>3[8:1],,,5h[8:2],,,3,4,6h[12:2],2,3,7h[12:2],1,2,8h[12:2],2,3,4,
56,7,4,34,2,6,57,8,3,24,1,5,7b/3b,,
6>3[32:4],2<7[8:1],,6-2[8:1],2,,6<1[8:1],5>2[8:1],,6,5,,8<5[8:1],1>4[32:4],,8p1[32:7],1q8[32:5],,,,,,
3h[12:2],,6,5/7h[12:2],,3,2h[12:2]/4,,5,3/7h[12:2],,4,6/2<7[16:2],,4,6>3[8:1],,,
3,2,1,8-4[8:1]/5,61,72,3b,,
3-1[32:4],6-2[8:1],,3-5[8:1],6-8[8:1],,3-7[32:4],6,,3,5<8[8:1],,1>4[8:1],5-1[32:4],,1,5w1[8:1],,,,,,
25,3,4,36,4,5,74,6,5,63,5,4,25,1,1,8,7,7,6,5,5,4-8[8:4],3,3,,,,,,,,,,,,,
1h[8:6],,,,,,,,,5-7[8:1]*<7[8:1],,,
{12},,,3,,4,3h[8:2],,,4h[8:2],,,5,,,6,,5,6,,,7,,5,7,,2,4,,,3h[8:2],,,4h[12:2],,2,4,,,3,,,3,4,5,
3h[8:2],,,
6,,,6,,5,6h[8:2],,,5h[8:2],,,4,,,3,,4,3,,,2,,4,2,,7,5,,,6h[8:2],,,5h[12:2],,7,5,,,6,,,6,5,4,{32}7,,,,,6,5h[1024:1],4,3h[1024:1],,
