&title=白日
&artist=King Gnu
&first=0
&des=お願い,全部…..忘れさせて…!
&lv_5=13+
&inote_5=(93)
{4}
,,,,
3<6[8:5],,,,7h[2:1],,1h[2:1],,
4pp6[2:1],,,1pp2[8:4],5pp4[8:7],,,,
,3h[4:1],2>7[2:1],{8}1,2,3h[8:3],,,,8h[4:1],,6>1[2:1],,
7qq4[8:4],,,,,,1pp1[8:5],,6pp4[8:7],,,,,,,,
3h[4:1],,7,6,6h[12:2],4,4h[12:2],5,
6h[4:1],,4,3,3h[12:2],5,5h[12:2],{16}2,,
{24}3h[4:1],,,,,,4h[6:1],,,5,,,5h[6:1],,,6,,,6h[6:1],,,7,,,
8>3[4:1],,,,,,3<6[4:1],,,,,,6q3[8:3]*<3[8:3],,,,,,,,,,,,
,,,,,,5h[24:6],,,,,,3h[6:1],,,4,,,4h[6:1],,,2,,,
3h[4:1],,,,,,6,,,4,,,5h[6:1],,,2,,,1h[6:1],,,7,,,
6h[4:1],,,,,,5h[6:1],,,4,,,4h[6:1],,,3,,,3h[6:1],,,2q5[8:4],,,
1qq6[8:5],,,,,,,,,,,,,,,,,,4qq3[16:5],,,4pp5[16:5],,,
{8},,,,
{24}3,,4,2,,5,4-1[12:1],,7,3,,,
{24}4/6,,,8,,8,2h[8:1],,,6p2[12:1],,,8-4[12:1],,,6,,,8<5[12:1],,,6,,,
{16}8>3[12:1],,2,,{24}8,,,4q1[8:1],,4,2>5[12:1],,,,,,,,,7-5[12:1],,,
3,,,4-7[12:1],,,2,,,8-4[12:1],,,2,,,{24}48,,,2,,,4-8[12:1],,,
6,,,8V25[8:1],,,6,,,4,,,6b,,4bV61[8:1]/8b,,,6b/3h[8:1],,,,,{48},2,3,4,
{24}5,,,82,,7,7h[8:1],,,3-8[12:1],,,1-5[12:1],,,3,,,6<1[12:1],,,8,,,
{16}3<6[12:1],,5,,{24}7,,,1,,1,3h[8:1],,,5,,4,6,,5,7-1[12:1],,,
35,,,2-7[12:1]/7,,,4,,,6-2[12:1]/2,,5h[8:1],,,1,6,,,3h[24:5],,8h[8:1],,,,
7<4[12:1]/1>4[12:1],,,8,,,71,,,,{48},7h[16:3],,,1b,,,,,,3b,,,,,,6b/5b<4[4:4],,,,,,8b/3b,,,,,,
{4}
1b/5b,,,4<2[4:3],6h[4:3],,,{12},3b>4[12:11]/4b,1b/2b,
{4}
7b/3b,,,4pp5[8:3]*qq3[8:3],,,
{24}4h[8:1],,7,6h[8:1],,2,1h[12:1],,7,{48}3,4,5,6,7,8,
{24}1h[12:1]/6h[12:1],,,3h[12:1]/4h[12:1],,,5h[12:1]/7h[12:1],,,4h[12:1],,1,
3h[12:1]/8,,,6h[12:1]/4h[12:1],,,5<1[8:1]/2h[12:1],,,3/4h[12:1],,,
{48}1V75[8:1],2,3,,,,,,,,,,4V61[8:1],3,2-5[12:1],,,,,,,,,,
{24},,,,,,8h[8:1],,3,2h[12:1],,6,
{48}5/1b,2,3,4,5,6,7,8,1,2,3,4,5,6,7,8,1,2,3h[8:1],,,,,,
8b,,,,4/8b,7,6,5,4,3,2,1,8,7,6,5,4,3,2,1,8,7,6,5,
{24}2h[12:1]/4h[12:1],,,5h[12:1]/8h[12:1],,,3h[12:1]/7h[12:1],,,1h[12:1]/2h[12:1],,,4h[12:1]/7,,6,5h[12:1]/2h[12:1],,,4h[12:1]/8h[12:1],,,3b/6b,,,
2h[12:1],,,3h[12:1]/4h[12:1],,,6<8[12:1]/5h[12:1],,,2>4[12:1]/1h[12:1],,,
4-8[8:1]/6-2[8:1],,,2,,,,,,,,,
{24}6/4>1[12:1],,,,,,2-6[12:1]/4,,,,,8,2V48[6:1],,,8,,,72,,,,,,
6>2[8:1]/1,,,,,,6/3-7[12:1],,,,,1,3V15[6:1],,,8,,,73,,,,,,
47,,,8,,3,5<2[6:1],,,4/6,,,5/7p3[8:1]*v4[8:1],,,,,,7,,,,,,
2h[4:1],,,,,,1>6[6:1],,,,,7,1,,,8,,,1-4[12:1],,,37,,,
5-7[8:1]/1,,,7-4[8:1],,,4-8[8:1],,,8-3[8:1],,,3>6[5:1],,,1>4[12:1],,,,,,,,,
{4}
5h[2:1],,3h[2:1],,6h[2:1],,4h[2:1],,
5h[2:1],,3h[2:1],,7h[2:1],,5>1[4:1],,
{8}
5h[4:1],,2,5,4h[4:1],,7,4,
6h[4:1],,1,6,4h[4:1],,1,4,
3h[4:1],,8,4,6h[4:1],,1,5,
2<7[12:1],,2/5s1[6:1],,5/2h[3:1],,{12},6p2[12:1],1-5[12:1],
{24}4q8[12:1],,,,,,,,,,,,
2,,8,3,,5,4-1[12:1]*-7[12:1],,6,2,,,
{24}4b,,,2,,2,5h[8:1],,,3q7[12:1],,,1-5[12:1],,,3,,,1>4[12:1],,,3,,,
5/1<6[12:1],,,7,,,15,,,3p6[12:1],,3,8<5[12:1],,,,,,,,,4>1[12:1],,,
7,,,8-4[12:1],,,7,,,5-1[12:1],,,6,,,8,,7h[8:1],,,2,2-6[12:1],,5,
4,,,8V64[8:1]/2,,,1,,,83,,,1b-7[12:1],,3b/7b-4[12:1],,,1b/4h[8:1],,,,,{48},3,2,1,
{24}8b,,,35,,7,7h[12:1]/1,,,4>1[12:1],,,1-5[12:1],,,74,,,6<1[12:1],,,8,,,
6/3<6[12:1],,,5,,,38,,,1,,1,3h[8:1],,,8,,2,6,,4,5-2[12:1],,,
37,,,1-5[12:1]/5,,,8,,,6-1[16:1]/1-6[16:1],,7h[8:1],,,1,,,,5h[24:5],,2h[8:1],,,,
1q5[12:1]/7p3[12:1],,,4-8[12:1],,,17,,,,,,
2b,,1b/5b-1[12:1],{16},3bp7[10:1]*q7[10:1]/7b,,5b<3[32:28],3b<3[32:26],,
{8}
,,,,,,,,5h[2:1],,,,4h[64:34],,7>2[8:6],,,,,,{64},,{8}3h[64:40],,,,
{64},,,,,,5pp4[2:4],,,,,,,,,,,,,,,,,,,,,,,,,,,,,,,,,,,,,1pp8[2:4],,,,,
E
