&title=そこに在る、光。-Long Ver.-
&artist=25時、ナイトコードで & DECO*27
&first=0.03
&demo_seek=30.7
&des=Lv Cat
&lv_5=13
&des_5=Lv Cat
&inote_5=
(132){4},,{2}Ch[8:7],
{32},,,,,,,,,,,,E8,B7,,,,,,,,,,,,,,,,,,,E4,
B3,,,,,,,,,,,E6,B5,,,,,,,,,,,,,,,,,,,E2,
B1,,,,,,,,,,,D7,E7,,,,,,,,,,,,,,,,,,,D3,
E3,,,,,,,,,,,D6,E6,,,,,,,,,,,,,,,,,,,D2,
E2,,,,,,,,,,,{8}8qq8[8:7],{32},,,,,,,,,,,,,,,,B3,
A3,,,,,,,,,,,B1,A1,,,,,,,,,,,,,,,,,,,{8}1xqq1pp1b[1:1],
{32},,,,,,,,B5,A5,,,,,,,,,,,,,,,,,,,B7,
A7,,,,,,,,,,,{8}Ch[8:5],,,,,1,
,,2h[2:1]/8<5[4:1],,,,,4/3>8[4:1],
,,7p4[2:1],,,,,C,
,,5v8[4:1]/1v4b[4:1],,,,,7/3,
,,4/8z4[4:1],,,,,6x/3x,
,,1>4[4:1],,4<7[4:1]*<7[4:1],,7>4b[8:3],
,C,,E8,B7,B6,E6,B4/E4/E8/B8,
,,,7x/1x<8-3pp3[8:5],,,,,8h[4:1],
{32},,,,,,,,A7,D7,{16}A6,{8}A5,A4,A3,A2,
Ch[8:3],,,,,7h[8:1]/1h[8:1],,,{4}8h[8:1]/2h[8:1],
6h[2:1]/4>2-8[4:1],{8},,,,8h[8:1]/7h[8:1],
,,5h[8:3]/6h[4:1],,,,,{4}4/7-3[4:1],
3qq3[8:3]*pp4[8:3],{8},,,,5xh[8:1]/2xh[4:1],
,,,,8h[8:1]/1h[8:1],,,{4}3h[8:1]/4h[8:1],
7h[8:1]/5>4-8>1[8:3],{8},,,,6h[8:1]/2h[8:1],
,,8-5[4:1]/5-2[4:1],,,,,{4}4h[8:1]/3h[8:1],
6/1<8-6qq5[8:3],{8},,,,Cfh[8:5],
,,,,1b,,1/8,
,7/5,,4/1>4z8[8:3],,5,,6,
,7,7h[2:1],6,,8,1h[4:1],8,
6,5,4,2h[4:1],3,5h[4:1],{4}4-1[8:1],
{8},8,8,1/2h[4:1],,4,4,5/3,
2,1/8,7,6/4,7,5/3,2,7,
6/1,1,2/8,{16}8,1,8,1,7,2,7,2,6,3,
6,3,5,4,5,4,{8}5<3b[8:3],,,,,4,
2,5x/4x,{32}E6,E4,B6,B3,B7,B2,E8,E2,{8}8bxh[8:1]/1xh[8:1],{16},2x,,2,
{8}3bx,6h[8:1],5bx,7/4h[8:1],{16}5,3,,4,{4}2<7[8:1],
{8}2b/5x,6,7h[8:1],8bxh[4:1],,5,{4}4/2-4[8:1],
{8}2b/6x,7,8b/2xh[8:1],1,{16}2,4,,3,{4}5pp4[8:3],
{8}E7f/B7/B6,{32},,,,,,,,E4,B3,B2,B1,E1,A8,D8,A7,{8}2xh[8:1]/6bxh[16:3],{16},,,2,
{8}8bx,1/4,5b/3x,6h[8:1],{16}5,7,,6,{4}8-5[8:1],
{8}8b,4h[8:1],3,5x/1b-4b[8:1],,8,{4}7h[4:1],
{8}5bx,6/4,5b/3x,1h[8:1],{16}7,8,,6,{4}5h[4:1],
{8}E1f/B8/B1/A8/A1,{32},,,,,,,,E2,E3,E4,E5,E6,E7,E8,E1,{8}1xh[8:1]/7bxh[16:3],{16},,,2,
{8}3x/4b,5/6<1[8:1],7bx,2,{16}2,3,,3,{4}4/2<8-3[4:1],
{8}2bx,3,4,6b/5x-1[8:1],,8,{4}8h[8:1],
{8}2b/7x,6/3,5b/4x,2/7v4<6[4:1],{16}1,1,,8,{4}8,
{8}7bxh[4:1],{32},,,,,,,,E7/A8,E1,B6,B1,B5,B2,E5,E3,{8}4x/3bxh[8:1],{16},4,,2,
{8}1bx,8/3,4b/7x,5/6-1[8:1],{16}7x,6x,,3x,{4}2x-5[8:1],
{8}8b/2x,7,6,5b/4xh[4:1],,7,{4}8h[4:1],
2bpp1[8:5],6bpp5b[8:3],{8},,,,Cf,
{32},,,,,,,,A7,D8,,,,,,,,,,,,,,,,,,,A2,
D2,,,,,,,,,,,{8}8>5[2:1]*q5[2:1],,,,,,,,5<4>5b[2:7],
,,,,E4/B4,
,,E2/B2,,,,,E8/B8,
,,E6/B6,,,,,E8/B8,
,,E2/B2,,,,,E4/B4,
,,4/5,,4/5,,4/6,
,4/8,,3/7-5[8:1],,3,,3/7<5[8:1],
,3,,7/2,,7/8,,7/1,
,7/3,,8/2-4-1-5[8:5],,8,,7,
,6,{32},,,,B7,E7,,,,,,,B2,E3,,,,,,,{8}8-4[8:1],
,4,,2qq2[4:1],,6qq6[4:1],,,,C,
,1>4[8:1],,7<4[8:1],,1-5[8:1],
,7-3b[8:1],,2bh[16:1],,3/4-8[8:1],,3-1[8:1]*-1[8:1],
,5-7b[8:1],,1,2,8/3,2,6/1,
7,8/1,2,3/4,5,4/3,2,4/3v1[8:1],
5,,,8bx-6[8:1],{16},8x,{8}1bx-3[8:1],{16},1x,{8}7bx-5[8:1],
{16},7x,{8}2bx-4[8:1],{16},2x,{8}8b-4-7[8:3]*-4-1[8:3],,,,,,8,
,7/6,5,4/3,5,4/6<8v5[4:1],
3/7,,,4,3/2,1,2/4-8>3[4:1],5/3,
,,,7>8-5>4[4:1],4,3,2,1-4<6[4:1],
8,,,7x>3v5b[8:3],,,,,Ch[8:3],
,,,,8b/B3f/B4/E4/E3,,,{4}1b/E6f/A6/D6/A5,
7b/B2/B3/A2/A3/D3/E3h[2:1],{8},,,,7x/1b-6-3[8:3],
,,8bxh[8:3],,,,,{4}2x/1b-4[8:1],
1bxh[2:1],{8},,,,8x-5[8:1]/3x-6[8:1],
,,,,7b/4x,,,{4}2b/5x,
1xpp8[8:3]/8bqq1[8:3],{8},,,,B7/B6/B2/B3/A7/A6/A2/A3/E7h[8:3]/E3h[8:3],
,,A8/D8/E8/B8/D4/E4/B4/A4,,,,,{4}1-5[8:1]/5-1[8:1],
5>2[8:3]/1<6[8:3],{8},,,,E1h[8:5]/E5fh[8:5],
,,,,,,7/3,
,5/1,,1/6-1[8:1],,6/2-5[8:1],,2/8-4[8:1],
,8,3,2<7[8:1],,6>3[8:1],,1<6[8:1],
,5>2[8:1],,8<5[8:1],,4>1[8:1],,7,
,2,3/4,5/6h[4:1],,8,8,8/7,
8,8/6,8,1/8,1,1/2,1,1/3,
1,1/4,8/2,{16}7,1,7,1,8,2,8,2,{24}8x,7,6,
{8}5,{24}1x,2,3,{8}4,{32}8x,7x,6x,5x,2x,3x,4x,5x,{24}7x,6x,5x,{4}Cfh[8:3],
{32},,,,,,,,,,,,D7/D4/E7/E4,A7/A3,D8,D3,A8,A2,D1,D2,{8}1bxh[8:1],{16},2x,,3,
{8}4bx,2h[8:1],3bx,1/4h[8:1],{16}3,5,,4,{4}6<1[8:1],
{8}6b/3x,2,1h[8:1],8bxh[4:1],,3,{4}4/6-4[8:1],
{8}6b/2x,1,8b/6xh[8:1],5,{16}6,4,,8,{4}3qq4[8:3],
{8}E2f/B1/B2,{32},,,,,,,,E5,B5,B6,B7,E8,A8,D1,A1,{8}7xh[8:1]/2bxh[16:3],{16},,,6,
{8}8bx,7/4,3b/5x,2h[8:1],{16}3,1,,2,{4}8-3[8:1],
{8}8b,4,5,7b-4b[8:1],,8,{4}1h[4:1],
{8}3bx,2/4,3b/5x,7h[8:1],{16}1,8,,2,{4}3h[4:1],
{8}E6f/B5/B6/A5/A6,{32},,,,,,,,E3,E4,E5,E6,E7,E8,E1,E2,{8}8x/2bx-5[8:1],7,2/8-4[8:1],
7,8x>3[8:1],1,8x,6,5pp8[8:3],5,4,
3,2,1,7x-4[8:1],6,7/2-7[8:1],1,2/6-1[8:1],
5,6/2pp5[8:3],3,2,6,7,{4}8h[8:3],
{8}5b,2b,7/1b-5[8:1],2,1/8<4[8:1],7,8/3-8[8:1],2,
3/6<1[8:1],5,6/2q3<5[8:3],3,2/8,7,{4}6<3b[4:1],
{8},,,4x-1[8:1],3,4/6-1[8:1],7,6/2<7pp2[8:5],
3,2/6qq3b[8:3],,,,,,,Ch[8:3],
{64},,,,,,,,,,,,,,,,A1,E1,B8,B7,{4},,{16},{64}A5,
E5,B4,B3,{4},{16},{8}5>8b[8:5]*p8b[8:5],
E
