&title=朧月夜
&artist=ナナツカゼ
&first=0.06
&des=ゆめさき
&lv_5=13
&inote_5=(125){1},
{4}3h[2:1],,4h[2:1],,5h[2:1],,6>3[8:1],,
2h[2:1],,1h[2:1],,8h[2:1],,7>2[8:1],,
4h[4:1],,3h[4:1],,2h[4:1],,1>4[8:1],,
8h[4:1],,7h[4:1],,6h[4:1],,5<8[8:1],,
{8}1h[4:1],,5,5,5h[4:1],,4qq3[8:1],,
6h[4:1],,4x,4x,5,6,7,8,
{16}1h[4:1],,,,6h[4:1],,,,2x,,{24}8,,,{16}8pp5[4:1],,,,
4,,3,,2h[4:1],,,,7x,,{24}3,,,{16}3pp8[4:1],,2,,2h[4:1],,,,,,3,,4h[4:1],,,,7,,6,,45,,3,,26,,7,,1/8,,{24}34,,,{16}5pp1[4:1],,4,,4h[4:1],,,,,,3,,3h[4:1],,,,8,,7,,6p4[4:1],,,,2h[8:1],,,,2,,2,,3,,4,,
5h[8:1]/6h[8:1],,,,5h[8:1]/6h[8:1],,,,47,,{24}6,5,6,5,,,{16}47,,
4h[8:1]/7h[8:1],,,,3h[8:1]/6h[8:1],,,,52,,{24}3,4,3,4,,,{16}52,,
5h[8:1]/2h[8:1],,,,4h[8:1]/7h[8:1],,,,2h[8:1]/6h[8:1],,,,3h[8:1]/7h[8:1],,,,
15,,15,,8pp3[4:1]/4pp7[4:1],,,,,,,,,,,,
{8}45,46,47,48,54,53,52,51,78,61,52,43,21,38,47,56,
{16}4,4,3,3,2,2,1,1,8,8,7,7,6,6,5,5,
4bqq4b[8:1],,,,,,,,{32}8b,7,6,5,4,3,2,1,8,7,6,5,4,3,2,1,
{8}8b-4[12:1],,8b/2-6[12:1],,5V71[8:1]/2b,,4-1[12:1]/5b,,
4b/2-5[12:1],3,2b/6-1[12:1],7,8-3[12:1]/6b,7,8b/6V47[8:1],6,
1b-5[12:1],,1b/7V53[8:1],,2-5[12:1]/7b,1,8V24[8:1]/2b,,
8b/7-4[12:1],6,7b/3-8[12:1],,1V75[8:1]/3b,2,1b/4-1[12:1],3,
4b-7[12:1]/6,5,1-6[12:1]/4b,,1b-4[12:1]/3,,1b/7-3[12:1],,
7b/5-1[12:1],4,6-3[12:1]/5b,7,6b/2-6[12:1],1,8V64[8:1]/2b,1,
8b/2qq5[4:1],,5,6,7qq1[4:1],,2,3,
4bpp3b[12:2],,,,{32}8b,7,6,5,4,3,2,1,8,7,6,5,4,3,2,1,
{8}8b-4[12:1]/4,7,8b/3-7[12:1],,5-1b[12:1]/3b,,2-5b[12:1]/5b,,
4-7[12:1]/2b,3,4b/6-1[12:1],5,8-3[12:1]/6b,7,8b/6-4v7[8:1],6,
1b-5[12:1],,1b/7V53[8:1],,2-5[12:1]/7b,1,8V24[8:1]/2b,,
8b/7-4[12:1],6,7b/3-8[12:1],,1V75[8:1]/3b,2,1b/4-1[12:1],3,
4b-7[12:1]/6,5,1>4[12:1]/4b,,1b<6[12:1]/8,,1b/2-6[12:1],3,
2b/4-8[12:1],5,3-6[12:1]/4b,2,3b/7-3[12:1],8,1V35[8:1]/7b,8,
1b/7pp4[4:1],,4,3,2pp8[4:1],,7,6,
5bpp5[4:1],,1bp1pp1b[16:7],,,,,,
8h[2:1],,,,5h[2:1],,,,1>5[2:1],,,,,,,,
8h[2:1],,,,4h[2:1],,,,1>5[2:1]`1q5?[2:1],,,,,,,,
8h[2:1],,,,3h[2:1],,,,1>5[2:1]`1p5?[2:1],,,,,,,,
8h[2:1],,,,2h[2:1],,,,1>5[2:1]*<5[2:1],,,,,,,,
{8}6h[4:1]/5,,7,,3h[4:1]/4,,2,,4h[4:1]/7,{24},E7,B6,B5,,,3,,,5hx[4:1]/2,,,E3,B3,B4,E5,,,,,,
{8}2h[4:1]/1,,4,,7h[4:1]/8,,5,,8h[4:1]/3,{24},E3,B2,B1,,,7,,,1hx[4:1]/6,,,E7,B7,B8,E1,,,,,,
{8}2h[8:1],5,2h[8:1],5,3h[8:1],6,3h[8:1],6,47,{24}6,5,6,5,,,27,,,25,,,3,4,3,4,,,18,,,
{8}3h[8:1],8,3h[8:1],8,2h[8:1],7,2h[8:1],7,16,{24}7,8,7,8,,,36,,,38,,,2,1,2,1,,,45,,,
{8}4/5pp2<2[1:3],,{16}E3,,E4,,E5,,,,E2,,E1,,E8,,E7,,E5,,,,E3,,E4,,E5,,E6,,B2,,B4,,B6,,,,B3,,B1,,B7,,B5,,E1,,E7,,E5,,,,Ch[2:1],,,,,,,,
{8}1h[4:1],,5,5,5h[4:1],2,2pp3[8:1],,
6h[4:1],,4x,4x,5,{24}6,5,6,{8}5,7,
{16}8h[4:1],,5,,5,,2,,2h[4:1],,,,5,,6,,7q1[4:1],,,,2h[8:1],,,,2,,2,,3,,4,,
5/6,,6,,5/6,,65,,47,,{24}6,5,6,5,,,{16}47,,
4/7,,4,,3h[8:1]/6h[8:1],,,,52,,{24}3,4,3,4,,,{16}52,,
5/2,,3,,47,,6,,3/5,,4,,57,,3,,
15,,15,,8qq1[4:1]/4qq5[4:1],,,,,,,,,,,,
{8}54,53,52,51,45,46,47,48,21,38,47,56,78,61,52,43,
{16}5,5,6,6,7,7,8,8,1,1,2,2,3,3,4,4,
5bpp5b[8:1],,,,,,,,{32}1b,2,3,4,5,6,7,8,1,2,3,4,5,6,7,8,
{16}1b-4[12:1]/5b-8[12:1],,,,1b-6[12:1]/5b-2[12:1],,,,1b-5[12:1]/5b,,,,1b/7-4[12:1],,,,7bV15[6:1]/2,,3,,7b/4-8[12:1],,,,4b>1[12:1],,7,,4b,,{24}8,7,6,
{8}5b-8[12:1],2,5b-2[12:1],1,5b<8[12:1],8,5b,{24}1,2,3,{8}4bpp1[6:1],56,4b,,{24}8b,7,6,2b,3,4,7b,6,5,1b,2,3,
{8}5bx-8[12:1]/4bx-1[12:1],63,5b/4b,,7b-5[12:1]/3b,2,7b-3[12:1]/1,{24}1,2,3,{8}7bV15[6:1]/4,5,7b/4-8[12:1],3,4b>1[12:1],6,7/4b,{24}8,7,6,
{8}5bpp1[4:1],43,2,{24}1x,2,3,{8}4bqq8[4:1],65,7,{24}8x,7,6,
{8}5bqq6b[6:1],,,,{32}1b,2,3,4,5,6,7,8,1,2,3,4,5,6,7,8,
{8}1b>4[12:1]/5b<8[12:1],48,1bv6[12:1]/5bv2[12:1],,1b/5b-8[12:1],,{16}5b/2-5[12:1],,3,,2b/7-3[12:1],,6,,7b/5-1[12:1],,2-4[12:1],,5b<8[12:1],,2,,5b,,{24}1,2,3,
{8}4b>1[12:1]/5b<8[12:1],36,4b/5b-1[12:1],,7v4[12:1]/5b,6,7b,{24}8,1,2,
{8}3bs7b[8:1],45,3b,,{24}8b,7,6,4b,3,2,7b,6,5,3b,2,1,
{8}7bx-4[12:1]/8bx-3[12:1],61,7b/8b,,2b-4[12:1]/6b,7,2b-6[12:1]/8,{24}8,7,6,{8}2bV84[6:1]/5,4,2b/5-1[12:1],6,5b<8[12:1],3,2/5b,{24}1,2,3,
{8}4bpp2[6:1],56,7,{24}8x,7,6,{8}5bqq7[6:1],34,2,{24}1x,2,3,
{8}4bqq4[6:1],,8bq8qq8b[16:7],,,,,,
{8}2h[4:1],,4,4,34,3,37,7,47,{24}5,6,4,{8}5,47,25,{24}4,3,5,{8}4,25,
3h[8:1],1,3h[8:1],1,21,2,26,6,16,{24}8,7,1,{8}8,16,38,{24}1,2,8,{8}1,38,
7h[8:1],4,7h[8:1],4,5h[8:1],2,5h[8:1],2,15,{24}2,4,3,{8}5,26,48,{24}7,5,6,{8}4,37,
6h[8:1],1,6h[8:1],1,8h[8:1],3,8h[8:1],3,48,{24}3,1,2,{8}8,37,15,{24}6,8,7,{8}1,26,
{3840}3<3[4:7],7>7[4:7],
