&title=冥
&artist=Amuro vs Killer
&first=0
&des=もふもふウサギ
&lv_5=14+
&inote_5=(200){1},,,
{8}6h[4:1]/5,4,3,5/2h[4:1],,1,3<1[4:11]/8,,
{1},,,
{8}6h[4:1]/5,4,3,5/2h[4:1],,1,3/8<4[2:1],,
,,2h[64:1],,,,1,,
3h[4:1]/4,5,6,4/7h[4:1],,8,6/1-5[4:1],,
,,,,,,8h[64:1],,
{16}
1,,28,,37,,4,5,,5,4,,3,,2,,
8,,71,,62,,5,4,,4,5,,6,,7,,
81,,2,,53,,6,5,,5,7,,3,,42,,
18,,7,,46,,3,4,,4,2,,6,,57,,
8,,12,,3,,7,8,7,8,7,,3,,42,,
1,,87,,6,,2,1,2,1,2,,6,,57,,
3,4,2,5,1,,6,5,7,4,8,,1,7<1[16:13],2>8[8:6],,
{1},
{8}
2b-5[8:1]/6b,,21,8-4[8:1],,38,1,2,
7-4[8:1]/3,,78,1-5[8:1],,61,8,7,
5^2[8:1]/6,,51,8-4[8:1],,38,1,2,
7-4[8:1]/3,8-3[8:1],7,8^5[8:1],,8,4,3,
1-5[8:1]/2,,14,3^8[8:1],,35,6,7,
8-4[8:1]/7,,85,6^1[8:1],,64,3,2,
8/3^6[8:1],,37,8-4[8:1],,48,3,2,
1/6^3[8:1],,62,1,8-3[8:1],7-4[8:1],8,7,
2b-5[8:1],,21,8-4[8:1],,38,1,{16}1,2,
{8}7-4[8:1]/3,,78,1-5[8:1],,61,8,7,
{8}5^2[8:1]/6,,51,8-4[8:1],,38,1,{16}1,2,
{8}4^7[8:1]/3,,48,1-5[8:1],,61,7,8,
{8}1-5[8:1]/2,,14,3^8[8:1],,34,5,{16}5,6,
{8}8-4[8:1]/7,,85,6^1[8:1],,65,4,3,
{8}6/2-6[8:1],,12,8-4[8:1],,38,{16}1,2,3,4,
{4}1b/5b,,{16}4,3,21,8,7,6,5,4,
2,1,2,8,3h[8:1],,8,1,8,2,7h[8:1],,
8,7,8,6,1h[8:1],,8,1,8,2,7h[8:1],,
2,1,3,8,4,7,5,6,
1,2,8,7,2,3,7,6,45,,3h[8:1],,2,1,8,7,
5,4,3,2,18,7,6,5,3,4,2,5,1,6,8,7,
{16}
3,4,3,7,5,,6,,6,,2,4,2,,6,5,
7,,3,4,1,,18,,7,2,7,2,8,1,8,1,
7,,18,,8,7,6,1,2,3,7,6,5,2,3,4,6,5,
43,2,1,8,7,6,5,6,7,8,1/4b,5,6,7,
8/4b,,3,4,3,,7,,78,,6,5,6,,2,,31,,3,4,3,,8,,17,,26,,
5,4,5,4,6,,7,,38,,2,,18,7,6,5,8,1,2,3,6,5,6,2,4,2,8,1,
7,8,6,1,5,2,4,3,
5,,6,,78,,1,,2,3,4,5,2,3,4,5,
3,4,5,6,3,4,5,6,4,5,6,7,4,5,6,7,
2,1,2,1,3,5,8,7,8,7,8,7,4,5,4,5,
2,1,2,5,4,5,4,7,8,7,4,6,{24}3,2,1,7,6,5,
(100)
{1}2bqq7[4:11],,
{16}
4,,3,5,,5,3,,4h[8:1],,,6h[8:1],,,5,4,
,,6,4,,4,6,,4,5,,36,,4,5h[8:1],,
(110){32}
2b,3,{16}4,6,6,,3,34,,2h[8:1]/5,,1,3/8h[8:1],,1,2/7,6,
(120)
{32}
2b,3,{16}4,6,6,,3,34,,2,1/3,,4/8h[8:1],,1,2/7,6,
(130){32}
2b,3,{16}4,6,57,,3,24,,1h[8:1]/5,,8,2/7h[8:1],,8,16,2,
(140)
{32}
2b,3,{16}4,6,57,,3,24,,1/5,8,,27,,8,16,5,
(150)
{32}
2b,3,4,,6,,57,,,,3,,24,,,,
7b,6,5,,3,,42,,,,6,,75,,,,
(160)
2b,3,4,,6,,57,,,,12,,38,,,,
7b,6,5,,3,,42,,,,78,,16,,,,
(170)
2b,3,4,,7b,6,5,,2,,1,,2b,3,4,,
7b,6,5,,2b,3,4,,7,,8,,7b,6,5,,
(180)
2b,3,4,,7,,8,,7b,6,5,,2,,1,,
2b,3,4,,7,,8,,7b,6,5,,1,,8,,
(190)
2b,3,4,,6b,7,8,,1b,2,3,,5b,6,7,,
2b,3,4,,6b,7,8,,3b,4,5,,7b,8,1,,
(200)
{16}
5,1,4,8,3,7,2,6,1,5,8,4,8,4,8,4,
(190)
{24}
8,1,2,3,4,5,7,8,1,2,3,4,
3,2,1,8,7,6,2,1,8,7,6,5,
(200){16}
4b/8b,,7,,3,4,5,,5,,6,5,7,,8,7,
56,4,3,2,18,7,6,5,3,4,2,5,1,6,8,7,
1,,7,8,6,,3,4,5,,3,,2,1,2,,
3,4,2,5,1,6,8,7,1,2,3,4,1,8,7,6,
45,,3,,7,8,7,,61,,25,,3,4,3^6[8:1],,
2,,1,,8^3[8:1],,7,,6,,5-1[8:1],,4-2[8:1],,5,,
4,,7,6,85,1,2,3,
7,5,6,4,5,3,4,2,5,1,6,2,7,3,8,4,
1,8,7,6,5/1b,26,37,48,
1b-7[8:1]/5b,,3-1[8:1],,1,,3,,{24}4,5,6,7h[8:1],,,1,,,{24}8h[8:1]/1,2,3,
{16}
4-2[8:1],,6-4[8:1],,4,,6,,{24}8,1,2,3h[8:1],,,5,,,{24}4h[8:1]/6,7,8,
{16}
1-6[8:1],,4-1[8:1],,1,,4,,{24}8,7,6,5h[8:1],,,4,,,{24}5h[8:1]/3,2,1,
{16}
8-3[8:1],,5-1[8:1],,8,,5,,{24}2,3,4,5h[8:1],,,1,84,73,62,,,
{16}
3-8[8:1]/7,,8-2[8:1],,3,,5,,4-7[8:1],,1,,4,,8-4[8:1],,
5,,8,,6,,7,,{24}7/3-7[8:1],6,5,{16}24,,1,,1,,
8,1,2,3,4/5,6,7,8,4,5,7,6,3,4,7,6,
4,5,7,6,2,3,6,5,84,1,62,3,4/8b,,,,
1,5,2,4,3h[8:1],,8,4,7,5,6h[8:1],,1,5,2,4,
3,2,1,8,5,6,7,8,2,1,3,8,4,7,5,6,
4,,3,4,2-5[8:1],,1-6[8:1],,2,,1,,
4,,4-8[8:1],3,2-5[8:1],,4,,2,,1,,
1,8,7,6,45,3,2,1,
78,,6,5,7-4[8:1],,8-3[8:1],,7,,8,,
5,,{24}6,7,8,{16}1,,3,,45,,6,,3,4,2,7,8,6,4,5,
1,2,3,4,1,8,7,6,3,4,2,5,1,6,8,7,
1,8,1,8,{16}1,2,37,6,52,3,48,7,{24}6/1-5[8:1],2,3,47,6,5,
{1}1b/4b,,3qq8[36:55]/7qq4[36:55],{2},
(180)
{2},
(175)
{8}5,6,4,3,6,7,3,2,
(165){4}
8h[28:25],,
(140){12}
1h[12:4],,,,
(100){16}
,,,{1}1bw5[8:5],,
