&title=美しい世界へ
&artist=卡拉彼丘
&first=0.03
&des=卡拉彼丘死了喵
&des_5=
&lv_5=13
&inote_5=(155){4},,,,{2}B7/E8/A7/E7,
E3/B3/E4/A3,
{4}7qq4[4:3],{8},,,,3,2,
{1}1qq4[4:5],
{8},,,,7,7,2,2,
{1}8q4-6[4:5],
{4},,2-4[8:1],8p1[2:3],
{1}4h[2:3],
{4},,,3,
4/2-5[4:1],{8}2/5-1[4:1],6,{4}7-3[4:1],{8}7-1q5[8:5],7,
{4}7,6h[8:1],{8},7,7,7,
{4}7-5[4:1],{8}4,3,{4}2-5[4:1],{8}6pp8[4:1],6,
{4}6,2h[8:1],,1-6[8:1]*-4[8:1],
{8},,4/6h[4:1],3,{4}2-8[4:1],{8}6-4[4:1],6,
{4}6,{8}3h[8:1],2h[4:1],,3,{4}3-6[4:1],
6>3[4:1],C,1w5[4:3],1,
,,,3/8q4[4:1],
2,{8}1p5[4:1],1,{4}1/6-3[4:1],{8}6-1[4:1],6,
{4}6,{8}E4/A3/B3,B6/E6/A6,,,{4}6/1p5[4:1],
7,{8}8q4[4:1],8,{4}8/3-6-8-5-2[4:3],{8}3,1h[8:1],
,1h[8:1],,1,,,6v7[4:1],6,
6/2-5p1[8:3],,,,,8-3[4:1],,3<6[8:3],
,C,,,,,2,2,
{4}2-5[4:1],{8}8,8V26[4:1],,8/6>8[8:3],,5h[8:3],
,,,,{4}7-4[8:1],1-6[8:1],
4h[8:3],{8}6q3[4:1],6,{4}6/4q8[4:1],4,
{8}3-5[4:1],3,3/7-1[4:1],7,{4}7,{8}5,4,
3h[4:1]/1h[4:1],,,8,7,6,5h[4:3],7s3[8:3],
,,,,,,5/4,7,
1/2,4,7/8,5,1/2,4,7/1,5,
8/2,4,7/1,5,8/2,4,{4}1/7>7[1:1],
7b,E7/B6f/A6,{16}B3/E3,,,E2/A1,,,{8}B8/E8,
{2}Cf,{4}2h[8:1]/7-4[8:1],2h[8:1],
{8}6/2>5[8:1],6,6/2<7[8:1],6,{4}6/2,{8}3/7<4[8:1],3,
3/7>2[8:1],3,{4}7/3w7[8:1],3b,{8}6>3[8:1],7,
6/7-4[8:1],7,{4}2-6<8-4[8:3],{8}2,A6f,,E6f,
,,{4}1-6[8:1]/8-6[8:1],1-3[8:1]/8-3[8:1],1/8,
{8},6,{16}3q5[4:1],4,{8}2,{4}8-4[8:1],A8f,
{8}2q6[8:1],2-7[8:1],2-5<7-4[4:1],2,{4}2,A4f,
{8}7,7,7-4[8:1],4>1v4[4:1]*<7v4[4:1],,,,A4f,
,,,,{4}7h[8:1]/2-5[8:1],7h[8:1],
{8}3/7<4[8:1],3,3/7>2[8:1],3,{4}3/7,{8}6/2>5[8:1],6,
6/2<7[8:1],6,{4}2/6w2[8:1],{8}6b,,,7,
{16}2b/4b,,,3b/5b,,,{8}4b/6b>4-8[4:1],,2-6[8:1],2,2,
{16}1h[16:3],,,5h[16:3],,,{8}3<6[8:1],,7/3,7,7,
7<5-1[4:1]/5>3-7[4:1],,,,,2x/8x,,6,
6h[4:1]/5-3[8:1],,,2h[4:1],,3-6-4-2-5-7-4[8:7],,,,,,,,,,B1/E2/D1/E1/A1,
{16}E7,,,C,,,{8}E3,,B3/E4/B4/A3/D4,,B6/B5/E6f/A6/D6/A5,
,,,,,,,,,,,,,,,,{1}7pp4>7[4:5],
{2},2>5[4:1],
{1}7qq2<7[4:5],
{4},,,2qq5>2[2:3],
,,,,,,,6,
5/7-4[4:1],{8}7/4-8[4:1],3,{4}2-6[4:1],{8}2-8p4[8:5],2,
{4}2,3h[8:1],{8},2,2,2,
{4}2-4[4:1],{8}5,6,{4}7-4[4:1],{8}3qq1[4:1],3,
{4}3,7h[8:1],,8-3[8:1]*-5[8:1],
{8},,5/3h[4:1],6,{4}7-1[4:1],{8}3-5[4:1],3,
{4}3,{8}6h[8:1],7h[4:1],,6,{4}6-3[4:1],
3<6[4:1],C,8w4[8:7],8,
{8},,,,,,,6/4,
3,7/1,6,8/2,3,7/1,6,8/2,
{4}4pp4[4:1]*qq4[4:1],4b,{8},,,3/5,
6,2/8,3,1/7,6,2/8,3,1/7,
{4}5qq5qq3<5[2:1]*pp5pp7<5[2:1],5,{8},,,6/4,
3,8/7,6,1/2,3,7/8,6,1/2,
{4}4pp4[4:1]*qq4[4:1],4b,{8},,7,7,
{4}7-4[4:1],{8}1,1V73[4:1],,1/3<1[8:3],,4h[8:3],
,,,,{4}2-5[8:1],8-3[8:1],
5h[8:3],{8}3p6[4:1],3,{4}3/5p1[4:1],5,
{8}6-4[4:1],6,6/2-8[4:1],2,{4}2,{8}4,5,
6h[4:1]/8h[4:1],,,1,2,3,4h[4:3],2z6[8:3],
,,,,,,4/5,2,
8/7,5,2/1,4,8/7,5,2/8,4,
1/7,5,2/8,4,1/7,5,{4}8/2<2[1:1],
2b,E3/B3f/A3,{16}B6/E7,,,E8/A8,,,{8}B1/E2,
{2}Cf,{4}E3,C,
{8}E7,B5,{4}D4f/A3/D3/E3/B3/E4/B4/A4,,,,B7f/B8/A8/D8/E8/A7/E7/D7,
,,,Cf/B2/E3/B3/E4/B4/E5/E2/B5/B6/E7/E8/B7/B8/E1/E6/B1,
{16},,,,,,,,,,,,3/B6/E6/B5,
,,7/B1/E2/B2,,,{8}3b/4b,4/5,5/6,
6/7,,,3,{16}6p4[4:1],5,{8}7,{4}1-5[8:1],
A1f,{8}7p3[8:1],7-2[8:1],7-4>2-5[4:1],7,{4}7,
A5f,{8}2,2,2-5[8:1],5<8v5[4:1]*>2v5[4:1],,,,A5f,
,,,,{4}2h[8:1]/7-4[8:1],
2h[8:1],{8}6/2-5[8:1],6,6/2-7[8:1],6,{4}6/2,
{8}3/7-4[8:1],3,3/7-2[8:1],3,{4}7/3w7[8:1],3b,
{8},2,{16}7b/5b,,,6b/4b,,,{8}5b/3b<5-1[4:1],,7-3[8:1],
7,7,{16}8h[16:3],,,4h[16:3],,,{8}6>3[8:1],,2/6,
2,2,{4}2>4-8[4:1]/4<6-2[4:1],{8},,,1x/7x,
,3,{4}3h[4:1]/4-6[8:1],{8},7h[4:1],,6-3-5-7-4-2-5[8:7],
,,,,,,,,,B8/E8/D1/E1/A8,
{16}E3,,,C,,,{8}E7,,B6/E6/B5/A6/D6,
,B3/B4/E4f/A3/D4/A4,
E
