&title=Sargasso
&artist=Aoi
&first=0.07
&des=Ebenholz with Musyer
&lv_5=14+
&inote_5=(175){4},,,,{48}6bV41V73b[2:7]/2bV85V37[2:7],
7x/3x,8x/4x,1x/5x,{1},,,{4},,,{12},,{4}6h[4:1],
{8}5,{16}6,6,{8}5,6h[16:3],{16},5h[16:3],{8},{4}4h[4:1],
{8}3,{16}4,4,,3,{8}4,{16},3h[16:3],{8},{16}4h[16:3],
{8},{16}2h[16:3],{8},5h[16:3],{16},3h[16:3],{8},{4}6b,
{16}7h[8:1]/4h[8:1],{8},{16}6h[8:1]/3h[8:1],{8},5h[8:1]/2h[8:1],{16},4h[8:1]/1h[8:1],{8},{16}2,4,3,5,
{4}4bxV28[8:3],{2},{16}7,6,{8}5bxV31[2:1],
{4},,,{16}5,4,{8}3bxV15[2:1],
{4},,,{16}8,7,{8}6bxz2[2:1],
{4},4h[8:1],{16},,,3,{8},2/5,
1/6,{16}7,8,{8}7,1/6,{16}3,4,{8}3,5,3,
{16}6,5,{8}6,7/4,{16}2,1,3,8,4,7,5,6,4,5,
3,3,6,6,4,4,7,7,{32}2x,3,{16}4,8,8,{32}3x,4,5,6,7,8,1,2,
{3}7h[8:5]/3h[8:5],,{24}2x/6x,1x/5x,{4}8x/4x-8[4:3],
A1,A2,A3,4xqq8[8:3],
{2},{8}7/1,6/2,{16}3-8[8:1],5,4,4,
{4}3b,{8}6h[8:1],4,3-5[8:1],5-1[8:1],3,6,
{4}7h[8:1],{16}4,4,{8}8,7-5[8:1],5-1[8:1],7,3,
{16}A4,A3,A2,A1,A8,A7,A6,A5,{8}2-4[8:1],4-8[8:1],2,5,
6bx,6,7bx/4bx,{16}5,6bx,{8}4,3bx/5bx,{4}2bx-5[8:1]/6bx-1[8:1],
{2}2/6<3[2:1],{4}B5,6<3[2:1],
B4,{8}4h[16:1],4h[16:1],{16}4h[16:3],{8},{16}6h[16:3],{8},2h[8:1],
8<5[4:1],1h[16:1],8,B7/B6,1>4[4:1],8h[16:1],1,B2/B3,
8,8,1/7-4[8:1],6/2-5[8:1],7,2,{4}8x,
{8}6b/1b,{16}3,4,{8}3,5/2,6-4[8:1],4-8[8:1],6,3,
2,{16}6,5,{8}6,4,5/3,2,6/4,7,
5xp8[8:1]/4xq1[8:1],3x/6x,{4}5x/4x,{8}3-5[8:1],5-1[8:1],3,6,
7bh[8:1],{16}2,7bh[8:1],,3,{8}7bh[8:1],{16}4-1[8:1],7bh[8:1],{8},{4}4,
{8}8b,{16}3,4,3,5,{8}4,6h[8:1],{16}5,4h[8:1],,5,{8}6h[8:1],
4,5/3,2,{16}4,4,{8}3h[8:1],{16}4,5h[8:1],,4,{8}3h[8:1],
{16}5,5,4,6,3,7,2,8,1,1,8,1,7,2,6,3,
5,4,5p4[2:1],4,5,4,{8}5,{2},{8}1b-5[8:1],
{16}6,6,{8}1-3[8:1],7,1-6[8:1],{16}5,5,{8}1,7,
8-4[8:1],7,8/2-6[8:1],1,2-4[8:1],8,2,7,
8b-4[8:1],{16}3,3,{8}8-6[8:1],2,8-3[8:1],{16}4,4,{8}8,2,
1-5[8:1],2,1/6-1[8:1],7,6-4[8:1],3,6,2,
1b-5[8:1],{16}6,6,{8}1-3[8:1],8,1-6[8:1],{16}7,7,{8}1,8,
{16}7,5,7,5,{8}7,4,{16}3,5,3,5,{8}3,6,
2/7-4[8:1],8,7/3-8[8:1],2,{16}3/5,{8},{16}6,{8},5/4,
{4}6h[8:1]/3h[8:1],{16}8,1,8,1,{8}7/2,{48}E7,E6,{12},{16}E3,E4,5,5,
{1}Ch[4:3],
{8}7-4-1[2:1]/2-5-8[2:1],8/1,{4}7/2,{2},{8}7b-3[8:1],
{16}4,4,{8}7<5[8:1],1,7,{16}4,3,{8}2,5/1,
,6x,{16}1x,1x,7x,2x,{8}8x-4[8:1],6x/3x,8x,1,
2b-6[8:1],{16}5,5,{8}2-4[8:1],8,2-6[8:1],{16}6V84[4:1],5,{8}2,5,
{4},{16}7,6,5,4,1,2,3,4,{8}1/5,8,
7-3[8:1],{16}4,4,{8}7-5[8:1],1,7-3[8:1],{16}3V15[4:1],4,{8}7,4,
,3,{16}2,3,4,5,8,7,6,5,{8}4/2,1s5V73-1[8:31],
{1},,,,C,
,,,{4}6h[16:3],
{8}5,6h[16:3],,5,{4}7,
3h[16:3],{8}4,3h[16:3],,4,{4}2,
{8}6<3[16:5],{4},{8}5,{16}4,,{8},{4}3V15[4:1],
7<7b[16:7],{2},{4}4-8[8:1],
4bxV68[8:3],{2},{16}2,3,{8}4bxV68-2[2:1],
{4},,,{16}5,6,{8}7bxV13-5-7[8:5],
{4},,,{16}1,2,{8}3bxs7[2:1],
{4},{8},5h[8:1],{16},,,6,{8},7/4,
8/3,{16}2,1,{8}2,3/5,{24}6,7,8,1,2,3,{4}5x/4x,
{16}4x/7x,{8},{16}2x/5x,{8},{24}3V17[4:1],4,3,{2}4x,
{16}8,8,2,2,{32}7x,6,{16}5,1,1,{32}6x,5,{16}4,8,8,{32}5x,4,3,2,1,8,7,6,
{4}5h[8:1],{8}6/4,7/3,{32}2,3,4,5,6,7,8,1,2,3,4,5,6,7,8,1,
{1}2>6q3q7b[4:5]/6<2q7q3[4:5],
{4}C,{2},{4}1/7<5[8:1],
3/7-3[8:1],{8}7,2,{16}1,8,7,6,{8}5/1xV35[4:1],7,
1,8,{16}7,7,1,1,5,3,7,4,6,5,8,2,
{8}7<4[8:1],8,7/1-6[8:1],2,1/8-4[8:1],7,{16}8/1v6[8:1],2,{8}3,
{4}7x/1x,{16}8,8,4,4,6,6,1,1,{8}5,3/7,
{4}8x/2x>4[8:1],{8}6/2-6[8:1],5,2,7,{16}8,1,2,3,
{4}4/8xV64[16:3],{16}4,3,2,1,5x,6,7,8,1,2,3,4,
{8}5bx/6bx,{16}7,8,{8}7,5bx/4bx,{16}2,1,{8}2,3bx/4bx,{16}8,1,
8,2,7,3,6,4,5,3,4,1,6z2b[4:1],2,{8}4-8[8:1],6x,
{4}4bx,Cf/B3/B7/B5/B1,1/7<5[8:1],{8}3/7-3[8:1],4,
7,2,{16}1,8,7,6,1,5,3,6,4,8,1,7,
{8}2x>5[8:1],1,2/8-3[8:1],7,8/1-5[8:1],2,{16}1/8,7,{8}6x-3[8:1],
,6b/2x-7[8:1],,2b/8x-4[8:1],,8b/2x,{16}1,2,{8}3,
4/7,7/4,{16}6,5,{8}6,2/5,5/2,{16}3,4,{8}3,
7/4,7/4,6/3,{16}2,5,1,4,2,5,3,6,4,7,
5,5,8,8,3,3,6,6,2,4,3,7,5,6,{8}4w8[8:5],
{1},{4}1b/8-4[8:1],
{8}2b/8-6[8:1],{16}3,3,{8}8b-3[8:1],2,1b/8<5[8:1],2b,
1b/8-4[8:1],{16}3,3,{8}8b-6[8:1],2,1b/8b,3,4bx,5bx/6bx,
4bx/3bx,7x/2x,{4}8b/1-5[8:1],{8}7b/1-3[8:1],{16}6,6,{8}1b,7b,
1b/8b,2/7,3h[8:1],{16}5,3h[8:1],,6,{8}3h[8:1],{4}7<2[8:3],
{2}7x/2x,{24}8,1,8,1,{12},{8}6b/5b,{24}2,1,2,
{8}1,3b/4b,{24}7,8,7,8,{12},{8}5xp8[8:1]/4xq1[8:1],6x/3x,{4}4x/5x,
{24}3,4,3,4,{12},{8}1b/8b,{24}6,5,6,{8}5,8b/1b,{24}4,5,4,5,{12},{24}3x/6x,
2,1,8,7,6,5x/3x,2,1,8,7,6,{8}5x/1xs5[16:5],5-1[16:3],,5x,
{1}C,
E
