&title=Closer
&artist=Avans
&first=0.02
&des=Satella
&lv_5=12+
&inote_5=(150)
{1},{4}5h[4:3],,,4h[4:3],,,{8}5h[8:3],,,4h[8:3],,,5h[8:3],,,4h[8:3],,,{4}6h[4:3],,,5h[4:3],,,{8}4h[8:3],,,3h[8:3],,,{4}4,5,6,7h[8:3],{8},5h[8:3],,,4h[8:3],,,2h[4:3],,,{4}1<4[4:3],,,{8}3,3,2,1,8,,7h[8:3],,,6h[8:3],,,5h[8:3],,4,3,4,5,{4}6h[4:1],5h[4:1],4h[4:1],{1}3>6[1:1],{1},{8},,,
1/8,,{16}2,4,{8}3h[8:1],5x-7[8:1],{16}4,4,5,,{8},{16}1,8,{8}1>4[8:1],7,1,6h[4:1],,5-3[8:1],7,5,{16}8,8,{8}1x,8h[2:1],,E2/B1,,E3,E4/B4,,6<8[8:1],5,6,{16}4,4,{8}5h[4:1],,2>4[8:1],4,2,6,{16}7,7,{8}5x,4h[8:1]/6h[8:1],{16},5,{8}3h[8:1],4,2,1h[2:1]/5,,E6/B5,,E7,E8/B8,,2,3/4,5,{16}6,5,{8}7h[4:1],,8,1,2>5[8:1],{16}6,6,{4}2,{8}8-4[8:1],1,8,{16}3,3,{8}5,4/6h[2:1],,E5/B5,,E4,E3/B2,,8,1/7,2h[8:1],{16}4,3,{8}5h[4:1],,,1,2/6<8[8:1],{16}3,3,{4}6,{8}4h[8:1],{16}5,4,{4}5h[4:1],3h[2:1],{8},E5/B4/B5,,,
1<6[4:1]/2,,3,4,5h[4:1],,4h[4:1],,{16}3,3,4,,{4}2-5[8:1]/5,{8}6h[4:1],,8,1,2h[2:1],,4,5h[2:1],,4,,3h[4:1],1<5[8:3],,,3,2,1,4h[4:1],,5h[8:1],,4/6,{16}7,5,7h[8:1],,,7h[8:1],,,{8}7,6h[4:1]/8,,B1/B8,B4/B5,,3h[2:1]/4,,7x,1<4[2:1],,2,1,1,,8h[4:1],,7,1/6,2/5,{16}3,4,{8}3h[4:1],,5,4/6,4h[2:1]/6,,E7/D7,D6/E6,,3h[2:1],,2,1<4[2:1],,3,2,1h[8:1],,2h[8:1],,{16}3,3,{8}5,2/6,{16}7,1,8h[8:1],,,7h[8:1],,,{8}6,4pp1b[2:1]/5pp8[2:1],,{4}4x/5x,,,
{4}1b<4[2:1]/2h[2:1],,,3h[2:1],,{8}2,1,2xq6[8:3]/8hx[2:1],,,,,,7x/8x,6,6,4x/5x,3,3,{4}1b<4[2:1]/2h[2:1],,,3h[2:1],,{8},{16}2x,1x,8x,7x,{4}6x>3[8:3],,{8},2,2h[4:1],,1,2h[4:1],1,{4}1b<4[2:1],,,3h[2:1],,,{8}4h[4:1]/5h[4:1],,,3h[4:1]/6h[4:1],,,2/7,7,1/8,1,2/8,8,{4}1b<4[2:1]/3h[2:1],,,2h[2:1],,,{16}A1,B1,C,B5,A5,,
{1}6<3[1:1],{8},,,,,,,{1}4w8[4:7],,,,{8},3/8,
1b<4[2:1]/2,,,3h[8:1],,3,2h[4:1],,4,3/5h[8:1],4h[8:1],6h[4:1],8,5h[4:1],8,6h[4:1],8,5,4h[2:1]/7-3[8:1],,7,,8x,,1b<4[2:1]/2,,,2h[8:1],,2,3h[4:1],,4,4,2,4,1h[4:1],,5,2h[4:1],,6,3h[4:1],,7,,4/8,,1b<4[2:1]/2,,,3h[8:1],,2,1h[4:1],,8,1,1,8,7h[4:1],2,3h[4:1],6,5h[4:1],4,4-8[8:1],,3h[4:1]/4,,7x,,1b<4b[2:1]/2,,3,3,,2,2h[4:1],,3h[4:1],,4,5,6h[4:1],,5,3h[4:1],,5,7h[4:1],,8,,1x,,
1b<4[2:1]/2,,,,,3,3h[2:1],,{4}4,2,{8}1h[4:1],4,2h[4:1],4,1h[4:1],4,2h[4:1],,4h[4:1],,5,,1b<4[2:1]/2,,,2h[8:1],,2,3-7[8:1],,5-1[8:1],,4,3,2h[4:1],,6,1h[4:1],,5,4h[4:1],,3h[4:1],,2,,1b<4[2:1]/2,,,3,3,2,1-5[8:1],,6-2[8:1],,3h[4:1],,4,5h[4:1],2,1h[4:1],6,7h[4:1],8-4[8:1],,1/8,,3/5,,1b<4b[2:1]/2,,4,3,,3,2-5[8:1],,6-1[8:1],,6,4,4h[4:1],,2,2h[4:1],,8,8h[8:1],,1h[8:1]/7h[8:1],,2h[8:1]/6h[8:1],,
3/5h[2:1],,4,4,4,6h[2:1],{4}5,4,3-6[8:1],7h[4:1],8h[4:1],1-4[8:1],2h[4:1],5h[4:1],3h[4:1],6h[2:1],{8}5,5,5,4h[2:1],{4}5,6,7-2[8:1],3h[4:1],4h[4:1],5-8[8:1],6h[4:1],1h[4:1],5h[4:1],
{4}2h[4:3],,,4h[4:3],,,5h[4:3],,,{8}7h[4:1],8,1,2h[4:1],,4,{4}5h[4:3],,,4h[4:3],,,5h[4:3],,,4h[4:3],,,5,,,4,,,5,,,4,,{8},5-8[1:3],
