&title=氮
&artist=坏枪
&first=0.04
&des=d-i-f-f-e-r
&lv_5=14+
&inote_5=(170)
{1},1!p5[28.25##0.4]*q5[28.25##0.4],,,,,,,,,,,,,,,,,,,,
{8},,,,6-8-4-2[1:1],,,,,,,,,,1,,2-4v5[1:1],,,,,,,,,,,,6,,7,,8p4p8[1:3],,,,
{4}1,,,,,2,1p5p1[1:1],,,,,,2,4,3,,5/6h[4:1],
{16}5,6,5,6,
{8}4h[8:3],,,3h[8:3],,,2,,1b-3-7-5[1:1],,
{1},
{4},7,8,24,3,5,6,47,
{8}6,5,4,,3,,4h[8:3]/2,,,3h[4:1],,6h[4:1],,1h[4:1],,6,5-8[4:1],4,3,,,,E2,,,,
6-8-4-2[1:1],,,,,,,,,,,,1-5[1:2],,,,,,,,6,,,,4,,,,
6x-8[2:1],,,,,,,,6x-8-4[2:1],,,,,,,,6x-8-4-2[2:1],,,,,,,,7h[4:1],,6,5,3x-5[8:1],,,,
6,6h[4:1],,4,3,4,2,4,4x-8[8:1],,2-4[8:1],,8-6[8:1],,5b,,
7>5[8:3]*>5[8:3],,7<5[8:1],,,,46,,3,5,2,2,4,6,3,5,1<4[4:1],,2,,1<3[4:1],,6,,
8,8h[4:1],,1,2,1,3,,6-8[16:1],1-5[8:1],,2-4[8:1],2,,6,7,
8-3[8:1],,2-5[8:1],,6v5-3[4:1],,,,2x<7[8:1],,,,2x<7[8:1],,,,
1,5,7pp8-5[8:3],3,4v2[8:1],,,,6,6,3,3,4-7[8:1],2-5[8:1],,,
7-4[8:1]*-4[8:1],,3,,2-5[8:1]*-5[8:1],2,6,,47,6,2,5,3-1[8:1],,34,,
4,3,5,6,4,3,26,,1-3[8:1]/4,,,,1-3[8:1]/5-7[8:1],,,,1-3[8:1],5V73[16:5],,,1b-3-7-5b[4:1],,,,
8hb[1:1],,,,,,7,,A6,,E3,,E5,,A3,,
{16}3/6-4[8:1],,4-7[8:1],,6,,2,,3,3,1,,
2>4[8:1]/8,,,,1>5[16:3],,,,8>6[4:1],,,,7bv6[8:1],,,,,,,,8v3[8:1],7,1,8v5[8:1],,,,,
2,,1,,46,,7,,4v1[8:1]/6v1[8:1],,38,,4<3[4:1],,,,4x,,,,5,5,4,4,
6v5[8:1],,7,5,6,,4v3[8:1],,8v1[8:1],,,,,,,,
2,1,3,7,4,6,5-8[8:1],,8V25[4:1],,,,,,,,7-4[8:1],,6,,3-1[8:1],,2,,
5-1-7[4:1],,,,5b,,,,
2h[4:1],,3,,7h[4:1],,6,,5V31[4:1]b,,8,,,,,,
7-4[8:1],,5,6,4-8[8:1],,,,2-5[8:1],,,,,,,,
7-3-7[16:3],1,6,2,,,,,2-6-2[16:3]b,6,1,5,,,,,
4pp4[4:1],,,,4qq4[4:1],,,,1,,7,,8,,7,,1,6,3,4,2,5,4,6,5-1[8:1]b,,,,,,,,
7h[8:1],,,,6h[8:1],,,,3h[8:1]/5h[8:1],,,,4h[8:1]/2h[8:1],,,,
1,3,1,3,1,3,1,3,1-5[8:1],3,1,3,1b,,,,
{32}8b/7b,16,25,34,,,,,34,,,,1b/2b,38,47,56,,,,,56,,,,7,,,,
{16}1,,2,8,4,6,3,7,1,5,4,4,6,6,8>3[8:1]b,,,,
4b-7-5-1[4:3],,,,2h[8:1]x,,,,8h[8:1]x,,,,4h[8:1]x,,,,
3-5[8:1],,2,,7-3[8:1],,6,,2-7[8:1],,1,,,,,,
6,6,5,7,4,,3,,25,,6,,34,,2,,3,4,2,5,4,,6,,5-8[8:1],4,3,2,5b,,,,
3-1[8:1],,7-4[8:1],,,,,,2-6[8:1],,6-1[8:1],,,,,,5-8[8:1],,5,,2,,3,,4,3,2,1,7,6,5,4,
{32}1bx,8x,7x,6x,5x,4x,3x,2x,1x,8x,7x,6x,5x,4x,3x,2x,
1x,8x,7x,6x,5x,4x,3x,2x,1x/4b,8x,7x,6x,5x,4x,3x,2x,
1x/5b,8x,7x,6x,5x,4x,3x,2x,1x-3-7-5[8:3]/6bx,8x,7x,6x,5x,4x,3x,2x,
{2}1x/7bx,
{16}8-4[8:1],,4-7[8:1],,,,,,1-3[8:1],,8,,1,,7-5[8:1],,
8-4[8:1],,7,,8,,1,,1-5[8:1],,34,,1b/2,,,,24,,3,,57,,6,,1pp1[4:1],,8,,1,,7,,
4,4,4bx>5[4:1],,,,,,,,
{32}2b,E3,B3/E4f,,,,,,,,,,
{8}57,8,56,3,46,7,45,2,3,
{16}3,4,2,,1,1,7-4[8:1],,4>5[1:3]b,,7bx,,,,,,,,,,,,,,,,,,,,
{1},,
{4},,,1h[8:1]x,
{8}1-3v4[24:5],8-4[12:1],1,8,1-3v4[24:5],8-4[12:1],1,8,
1-3v4[24:5],8-4[12:1],1,8,1-3v4[24:5],8-4[12:1],1,8,
2-4v5[24:5],1-5[12:1],2,1,2-4v5[24:5],1-5[12:1],2,1,
2-4v5[24:5],1-5[12:1],2,1,2-4v5[24:5],1-5[12:1],2,1,
8-3[12:1]*z4[24:5],7-4[12:1],8,7,8-3[12:1]*z4[24:5],7-4[12:1],8,7,
8-3[12:1]*z4[24:5],7-4[12:1],8,7,8-3[12:1]*z4[24:5],7-4[12:1],8,7,
2-5[12:1]*z6[24:5],1-6[12:1],2,1,2-5[12:1]*z6[24:5],1-6[12:1],2,1,
2-5[12:1]*z6[24:5],1-6[12:1],2,1,2-5[12:1]*z6[24:5],1-6[12:1],2,1,
2V41[4:1],1,1-5[8:1],8,6V85[4:1],6,5-1[8:1],4,
2V41[4:1],2,1-5[8:1],8,6V85[4:1],6,5-1[8:1],4,
2V48[4:1],3,8-6[8:1],7,5V73[4:1],5,3-1[8:1],2,
8V27[4:1],8,7-4[8:1],6,6V85[4:1],6,5-2[8:1],4,
3-1[8:1],4,8-3[8:1],7,4-8[8:1],5,4,6,7-5[8:1],
6,3-7[8:1],2,8-3[8:1],1,8,2,
{16}2V41-5[8:3],,4,4,2,,5,,6-8-4-1[8:3],,,,,,,,2-4-8-6[2:1]b,,,,,,,,,,,,,,,,
{8}5-8[8:1],,5/6-8-4-2[2:1],,,,,,1-6[8:1],,,,4v1[8:1],,,,2-4v5[2:1],,,,
5-7-3-1[2:1],,8,8,8-4[8:1],,8,2,2-6[8:1],,,,
1-4[8:1],,1/2-4-8-6[2:1],,,,,,5-2[8:1],,,,8v5[8:1],,,,6-8v1[2:1],,,,1-3-7-5[2:1],,
4-8-3-1[2:1],,,,,,4,4,
{16}5,3,6,4,
7,,7,,4,,4,,25,,3,,46,,7,,5-7-3-1[8:3],,
8,8,5,,1-3v4[4:1],,,,8,,8-6[8:1],,,,8-4-2[4:1],,1,,5-7-4-8[8:3],,,,5,,1,,2,,
2,,7-5[8:1],,1-3[8:1],,7-3[8:1],,,,8,,1,,2-4-8-6[8:3],,,,
2,,6-8-4-2[8:3],,5,,,,2-4v5[4:1],,,,5-7-4-8[8:3],,6,,
7,,,,1-5[8:1],,,,1-4-2[4:1],,,,,,,,
6,,7,,5,6,4,4,5-7[8:1],,6,,3-7[8:1],,2,,
1-3[8:1],,8,,4-8-3[4:1],,4,,2bz6[4:1],,,,,,,,
{1}5b-7-3-1[1:6]b,E8,B2,B5,E4,A5,C,
{16}7h[16:1],,7-3[2:1],,,,,,,,,,,,,,
{1}2z6b[1:6],,,,,,,,
5v4-2[1:2]b,,,,8-4-7-5[1:3]b,,,,,,6-1-4-2[1:3]b,,,,,,1bq6q3q8q5q2q7q4q1[1:12],
,,,,,,,,,,,,,,,,,,,,,,,,1,
