&title=-
&artist=Viewtifulday
&first=0.15
&des=∀x, x>∞
&clock_count=4
&lv_5=14
&inote_5=(182.3)
{4},,,,
{8},,,,,,,,
{8}5h[8:7],,4,,3,,2,,
{8}1h[8:7],,8,,7,,6,,
{8}5h[8:7],,3,,2,,1,,
{8}8h[8:7],,5,,6,,7,,
{8}6h[8:7],,4,,2,,8,,
{8}3h[8:7],,5,,7,,1,,
{8}8h[8:7],,6,,2,,4,,
{8}1h[8:7],,3,,7,,5,,
{8}2-5[8:1],1,2,8,7-4[8:1],8,7,8,
{8}2-5[8:1],1,2,8,7-4[8:1],8,7,8,
{8}1-4[8:1],8,1,7,6-1[8:1],5,6,5,
{8}2-5[8:1],1,2,7,8-5[8:1],1,8,1,
{8}2>5[8:1],1,2,8,6<1[8:1],5,6,4,
{8}3>8[8:1],4,3,5,7<4[8:1],8,7,8,
{8}1>4[8:1],8,1,6,5<8[8:1],4,5,2,
{8}1,7,3,5,4h[8:1],{16}5,6,73,,15,,
{8}2b/8-5[8:1],2,2,2,3/7-4[8:1],3,3,3,
{8}2/1-5[8:1],2,2,2,3/6-2[8:1],3,3,3,
{8}4/8-5[8:1],4,4,4,3/6-1[8:1],3,3,3,
{8}2/7-3[8:1],2,2,2,18,27,36,45,
{8}7/1-4[8:1],7,7,7,6/2-5[8:1],6,6,6,
{8}7/8-4[8:1],7,7,7,6/3-7[8:1],6,6,6,
{8}5/1-4[8:1],5,5,5,6/3-8[8:1],6,6,6,
{8}7/2-6[8:1],7,7,7,84,{16}73,26,15,,26,,
{8}1>4[8:1]/8b,1,8,7,6<1[8:1],6,5,4,
{8}3<6[8:1],3,2,1,8-4[8:1],8,6,6,
{8}8<5[8:1],8,1,2,3>8[8:1],3,4,5,
{8}6>3[8:1],6,7,8,1-5[8:1],1,3,3,
{8}1b/8-4[8:1],1,2/8,2,3/5-1[8:1],3,4/5,4,
{8}8b/2-5[8:1],8,7/2,7,6/4-8[8:1],6,5/4,5,
{8}7b,68,15,24,5b,46,37,28,
{8}1b,47,8b,25,1b/8b,{16}27,36,45,,27,,
{8}1-5[8:1]/8b,1,8-5[8:1],8,4-7[8:1],3-8[8:1],4,3,
{8}6-2[8:1],6,5-2[8:1],5,1-4[8:1],8-5[8:1],1,8,
{8}3-7[8:1],3,4-7[8:1],4,8-5[8:1],1-4[8:1],8,1,
{8}8-4[8:1],8,1-4[8:1],1,5-2[8:1],6-1[8:1],5,6,
{8}3-7[8:1],3,4-8[8:1],4,1<6[8:1],2>5[8:1],1,2,
{8}8-4[8:1],8,1-5[8:1],1,8>3[8:1],7<4[8:1],8,7,
{8}2-6[8:1],2,1-5[8:1],1,4<7[8:1],3>8[8:1],4,3,
{8}6,6,3,3,16,{16}27,38,14,,26,,
{8}1-5[8:1]/8b,2,1/2,3,8-4[8:1]/1,7,7/8,6,
{8}1-6[8:1]/8,2,1/2,3,8-3[8:1]/1,7,7/8,6,
{8}1-5[8:1]/7,2,1/3,4,8-4[8:1]/2,7,8/6,5,
{8}1-6[8:1]/7,2,1/3,4,8-3[8:1]/2,7,8/6,5,
{8}1b/2-5[8:1],3,12,7,1-5[8:1]/2,8,12,4,
{8}8b/7-4[8:1],6,87,2,8-4[8:1]/7,1,87,5,
{8}1b/2-5[8:1],38,12,6,8b/7-4[8:1],16,78,3,
{8}1b/8b,57,1b/8b,24,1b/7b,{16}8,8,8-4[8:1],,17,,
{8},,,,,,,,
{8}3h[8:8],,,,,,,,
{8}6h[8:16],,,,,,,,
{8},,,,,,,,
{8}4>1[16:15],,,,,,,,
{8}8<5[16:15],,,,,,,,
{8}4-8[16:15],,,,,,,,
{8}7-3[16:11],,,,,,,,
{8}6,5,6,5,8,1,7,2,
{8}4,3,4,3,8,1,7,2,
{8}6,5,7,4,8,1,6,3,
{8}4,3,5,2,8,1,6,6,
{8}2,4,3,3,7,5,6,6,
{8}1,4,3,3,8,5,6,6,
{8}8,5,3,3,1,4,6,6,
{8}4,6,2,4,8,{16}17,26,35,,17,,
{8}2h[8:1]/8b,5,2h[8:1]/8,5,1/7h[8:1],4,1/7h[8:1],4,
{8}2h[8:1]/8,5,2h[8:1]/8,5,7h[8:1]/8,5,7h[8:1]/8,5,
{8}1/3h[8:1],5,1/3h[8:1],5,6h[8:1]/8,4,6h[8:1]/8,4,
{8}1/3h[8:1],5,8/6h[8:1],4,78,56,34,12,
{8}2h[8:1]/8,6,5/7h[8:1],3,2h[8:1]/4,8,1/7h[8:1],5,
{8}4/6h[8:1],2,1/3h[8:1],7,6h[8:1]/8,4,3h[8:1]/5,1,
{8}8/4h[8:1],5,6h[8:1]/3,8,5h[8:1]/1,4,6/3h[8:1],1,
{8}6h[8:1]/4,8,2h[8:1]/4,8,26,48,15,{16}37,6,
{8}5h[8:1]/1b,3,8/4h[8:1],6,7h[8:1]/5,1,2h[8:1]/4,8,
{8}6h[8:1]/1,4,3h[8:1]/8,5,7h[8:1]/4,1,2h[8:1]/5,8,
{8}6h[8:1]/5,1,3h[8:1]/4,8,7h[8:1]/1,5,2h[8:1]/8,4,
{8}7h[8:1]/5,3,2h[8:1]/4,6,18,36,27,45,
{8}7b/8b,78,16,16,25,25,34,34,
{8}1b/2b,12,38,38,74,74,56,56,
{8}1b/8b,27,36,45,3b/6b,25,16,78,
{8}1b/5b,26,3b/7b,48,5b/7b,{16}46,37,28,,36,,
{8}1b/8b,46,78,35,68,23,17,45,
{8}13,57,28,46,17,35,68,13,
{8}27,56,14,36,58,46,18,45,
{8}13,67,35,12,68,13,57,34,
{8}68,24,17,35,28,46,13,68,
{8}34,{16}25,16,{8}78,45,16,47,25,38,
{8}17,56,48,25,68,23,58,24,
{8}78,35,12,57,23,14,58,67,
{8}8b/2b,45,13,56,17,45,68,34,
{8}12,56,18,45,78,34,67,14,
{8}28,57,24,17,46,13,68,35,
{8}14,27,58,36,18,24,56,17,
{8}2b/8b,46,78,13,45,68,37,15,
{8}4b/6b,{16}37,26,{8}15,34,68,45,31,78,
{8}3b/5b,17,46,28,4b/3b,86,12,35,
{8}6b/8b,17,2b/8b,31,7b/8b,3b/4b,1b/2b,5b/6b,
{8}3-7[8:30]/8-4[8:30],,,,,,,,
{8},,,,,,,,
{8},,,,,,,,
{8},,,,,,,,
