&title=空気力学少女と少年の詩
&artist=はな
&first=0.87
&des=Azuki
&lv_5=12+
&inote_5=(182)
{1},
{16}4h[8:4]/5h[8:4],,,,,,,,,,,,3h[8:6],,4h[8:7],,
{16},,,,,,,,,,,,1
,,8,,
{8}2h[4:1],,,3h[4:1],,,4h[4:1],,
{8},3h[4:1],,5,3,6,4,5,
{16}3h[8:4]/6h[8:4],,,,,,,,,,,,7h[8:6],,4h[8:7],,
{16},,,,,,,,,,,,8
,,1,,
{8}7h[4:1],,,6h[4:1],,,5h[4:1],,
{8},6h[4:1],,8,1,7,2,8,
{8}1b/7b,,2,,3-6[8:1],3,7-4[8:1],7,
{8},8,1,2,3,,8,5,
{8}6>3[8:1],,1,1<6[8:1],,4,4>1[8:1],,
{8}7,7<4[8:1],,2,2,3,4,1,
{8}8b/2b,,7,,6-2[8:1],6,3-6[8:1],3,
{8},1,8,7,6,,1,4,
{8}3<6[8:1],,8,8>3[8:1],,5,5<8[8:1],,
{8}2,2>5[8:1],,7,7,6,5,8,
{8}1b,,2,2h[8:3],,,6,6h[8:2],
{8},5,7,8,,1,1,7,
{8}7-5[32:3],,4,
{8}4-8[8:1],,5-1[8:1],,{12}1,
{12},,{8}2,3,4,1,,3,3h[8:2],
{8},4,2,1V74[16:5],,,2,3h[8:2],
{8},4,4,
{12}28,,,5,{24},6>3[8:1],,,
{8},
{8}1,,2,
{12}3-1[32:3],,,8-4[8:1],,,{8}1-5[8:1],
{8},5,6,7,5,6,12,,
{8}8b/3b,,7,7h[8:3],,,3,3h[8:2],
{8},4,2,1,,8,8,2,
{8}2-4[32:3],,6-8[32:3],
{12}6,,,5qq1[8:4],,,{12}8,
{12},,{8}8,7,6,5,,1h[8:2],,
{8}4-8[8:1],,3,3-1[32:3],,5-8[8:1],,4-1[8:1],
{8},6-8[32:3],,
5-1[8:1],,8,8,,
{8}2-6[8:1],,1,
1-5[8:1],,8-4[8:1],,7-3[8:1],
{8},6-2[8:1],,5-1[8:1],,4,4,,
{8}12,3,4,5,6,7,81,,
{8}7b/2b<7[8:22],,,3,4,,6,5,
{8},4,5,4,6,4,5,3,
{8}3,,2,,1,,2,3,
{8},,3<5[8:1],,6>2[32:5],,1,1>5[32:5],
{8},,7-5[32:3],,8-4[8:1],,1,1<2[16:7],
{8},,,,,7,6,5,
{8}14,2,38,7,16,,2p4[16:4]/7q5[16:4],18,
{8},,,,{24}4b,3,2,1,8,7,6,5,4,3,2,1,
{8}8v3[8:1],,8/2v5[8:1],,2/6v3[8:1],,6/4v7[8:1],,
{8}4/8v3[8:1],,8/1<4[16:5],,2,,3pp7[8:4],,
{8}2,,1,1,2,,1V37[8:2]/8V62[8:2],18,
{8},,,,27,45,18,,
{8}6>3[8:1]/3,,2q6[8:1]/6,,7p3[8:1]/2,,7/1>6[8:2],,
{8}1,,7,7p8[8:2],,2,2,,
{8}3b,,4b,,5b,,6b,,
{8}78,1,78,2,7h[8:1],6h[8:1],5h[8:1],4h[8:1],
{8}3bq8[16:3],,13,,2-7[8:1],,2/6-3[8:1],,
{8}6/1-4[8:1],,1/5<2[16:5],,4,,3qq7[8:4],,
{8}4,,5,,6qq4[16:3],,5,5qq3[16:3],
{8},,,,4,,5,4w8[8:3],
{8},,,,,,1>4[8:2]/7<1[8:4],1/7,
{8},,,,8,,8,1,
{8}7-4[8:1],7,2-5[8:1],2,6-1[8:1],6,3-8[8:1],3,
{8}4-7[8:1],4,1,1,
{24}2,3,4,5,6,7,
8,1,2,3,4,5,
{16}6-2[8:1],,,,1b,,,,4/3,,2,,6/5,,7,,
{16}4/5,,2,,4/5,,7,,1h[8:1]/2,,4,,7/8h[8:1],,5,,
{16}24,,2,1,2,,35,,7,8,7,,4/6,,57,,
{16}8,,5/3,,42,,1,,1,4,2,5,3,6,4,7,
{16}5^8[8:1],,,,{24}1,2,3,{16}4b^1[8:1],,,,{24}8,7,6,{16}5b,,,,
{24}2-6[8:1]/6-2[8:1],37,48,{16}1b/5b,,,,,,4b-1[8:1]/5b-8[8:1],,,,4b/5b,,,,
{16}1b^6[8:1]/2,,,,{24}5,4,3,{16}2b^5[8:1],,,,{24}6,7,8,{16}1b,,,,
{24}4-8[8:1]/8-4[8:1],37,26,{16}5b/1b,,,,,,5bw1[8:1]/4b,,,,5b,,,,
{16}81,,8,,8,,83,,84,,83,,84,,,,
{16}18,,1,,1,,14,,15,,16,,17,,,,
{16}18,,,,45,
,43,,45,,43,,45,,,,
{16}78,,6,,45,,3,,12,,12,,3,6,4,5,
{16}1,8,1,8,1,8,1,8,1,8,5b,8,1,8,1,8,
{16}1,8,5b,8,1,8,4b,8,7h[64:1],8,3h[64:1],8,6h[64:1],8,2h[64:1],8,
{16}4b,8,7h[64:1],8,3h[64:1],8,1b,8,{24}7bs3[4:1],6b,5b,4b,3b,2b,1b,,,,,,
