&title=KUSANAGI
&artist=aran
&first=0
&des=Shino_mg
&lv_5=13+
&inote_5=(180)
{1},,{8}6h[8:5],,5,,,8,71,,7h[8:5],,8,,,5,64,,3h[8:5],,4,,,1,28,,2h[8:5],,1,,,4,35,,
{4}64,{32}4,3,{16}2,,,{32}4,5,{16}6,,,{32}4,3,{16}2,,,
{4}35,{32}5,6,{16}7,,,{32}5,4,{16}3,,,{32}5,6,{16}7,,,
{4}54,{32}4,3,{16}2,,,{32}5,6,{16}7,,,{32}3,2,{16}1,,,{32}6,7,{16}8,,,
{32}2,1,{16}8,,,{32}7,8,{16}1,,,{8}8b,,
3h[8:3],4,,{16}1,2,{8}8,,78,,6h[8:3],5,,{16}8,7,{8}1,,12,,
3h[8:3],4,,{16}1,2,{8}8,,71,,6h[8:3],5,,{16}8,7,{8}1,,2b/8b,,
3h[4:1]/5,4,5h[4:1],4,3h[4:1],4,6h[4:1],5,4h[4:1],5,6h[4:1],5,4h[8:1],5,82,,
{16}7,3,7,3,7,3,7,3,6,4,6,4,6,4,6,4,{4}5-1[4:1],,,5b,
{8}1<6[8:1]/2,,1,4-8[8:1],,3,1,,1/7<4[8:1],,7,3-7[8:1],,2,8,,
1/6>3[8:1],,6,2-5[8:1],,2,6,4,8-4[8:1],,81,2^7[8:1],,2,6,,
4/5h[2:3],3b,,2b,4b,,6b,4b,,3b,1b,,8^5[8:1],,3^8[8:1],3h[8:3],,,7b,,5b,
,1b/2b,3b/4b,,7b/8b,6b/5b,,1-4[8:1]/8-5[8:1],,18,,
8>3[8:1]/7,,8,5-1[8:1],,6,8,,8/2>5[8:1],,2,6-2[8:1],,7,1,,
8/3<6[8:1],,3,7-4[8:1],,7,3,5,1-5[8:1],,18,7^2[8:1],,7,3,,
5/4h[2:3],6b,,7b,5b,,3b,5b,,6b,8b,,1^4[8:1],,6^1[8:1],6h[8:3],,,2,,4,,
6-3[8:1],,7-2[8:1],,,,14,14,8b/5b,,
7-4[4:1],,6,5-8[8:1],,,,1,2-5[4:1],,3,4-1[8:1],,,,8,
7-4[4:1],,6,5-8[8:1],,,,2,8^3[2:1]/4^7[2:1],,,,,,,,
1-4[4:1],,2,3-8[8:1],,,,7,8-5[4:1],,7,6-1[8:1],,,,2,
1,2,3,4,5,6,7,8,{16}13,,,86,,,{8}13,,45,1b/8b,,
3/4h[4:1],2,3h[4:1],1,4h[4:1],2,3h[8:1],1,34,2,34,6,34,1,34,8,
6/5h[4:1],7,6h[4:1],8,5h[4:1],7,6h[8:1],8,65,7,65,3,65,8,65,1,
34,2,1,8,7,6,5,43,65,7,8,1,2,3,45,,
{16}4,5,4,5,3,5,3,5,2,5,2,5,1,5,1,5,
2,3,4,5,6,7,8,1,{32}6,5,4,3,2,1,8,7,{4}6-1[4:13]/3-8[4:7],{2},,,,,,,
{8},3,4,5,{2}6-3[4:5],,,{8},2,1,8,{2}7-2[4:5],,,
{16},,,,8,7,6,5,
{8}2h[8:1],4,2h[8:1],5,2h[8:1],3,2h[8:1],8,
7h[8:1],5,7h[8:1],4,7h[8:1],6,7h[8:1],1,
24,5,24,{16},1,{8}8,,75,4,75,{16},8,{8}1,8,{16}1,8,,,2,7,3,6,
{8}54,3,54,6,54,2,54,7,45,1,45,8,34,1,65,8,
{16}3,1,3,1,3,1,3,1,6,8,6,8,6,8,6,8,
4,3,2,1,8,7,6,5,{8}4-1[8:1],,,,
78,1,78,5,24,1,{16}2,4,{8}3,4/5-1[8:1],6,5/3-7[8:1],2,35,8,1b/6b,,
45,3,65,8,31,2,{16}4,3,{8}5,6-3[8:1]/4,7,6/4-1[8:1],2,45,8,3b/6b,,
21,8,21,4,75,8,{16}7,5,{8}6,5/4-8[8:1],3,4/6-2[8:1],7,64,1,8b/3b,,
54,6,{16}4,3,2,1,7b,,3,,5,6,7,8,2b,,,45,,,18,,{8}3-8[8:1]/6-1[8:1],,,,
65,4,65,8,24,6,{16}3,4,{8}2,78,{24}1,2,3,5b,,,6,5,4,2b,,,1,2,3,{8}4b/8b,6,
4,2,6,8,65,{16}2,3,4,,8,7,{4}6-3[8:1],3-8[8:1],8-5[8:1],2b,
{8}34,5,34,1,75,3,{16}6,5,{8}7,21,{24}8,7,6,4b,,,3,4,5,7b,,,8,7,6,{8}5b/1b,3,
24,18,75,{16}1,8,{8}1,2,34,65,,27,
{16}18,2,34,5,62,3,45,6,{8}7b/1b,,
18,2,13,{16}8,7,{8}6,1,34,2,81,7,86,{16}1,2,{8}3,8,65,7,
{16}1,2,4,5,3b,,2,1,{8}7,5,46,2,{16}8,7,5,4,6b,,7,8,{8}2,4,16,,
78,7,67,6,56,5,{16}5,6,7,8,{8}21,2,32,3,43,4,{16}4,3,2,1,
{8}78,54,12,54,{24}7,8,7,8,,,2,1,2,1,,,
{16}7,6,5,4,3,2,1,8,{32}3,4,5,6,7,8,1,2,{4}3-8[8:1]/6-1[8:1],{1}6b/3b,,,,
