&title=Nyarlathotep's Dreamland
&artist=Raimukun
&first=0
&des=Aurora
&lv_5=14+
&inote_5=(200){4},{1},{4},,,{1}B6/B5/B1/B2/Ch[4:3],
{8},1>4[8:3],{4},,,{1}B7/B8/B4/B3/Ch[4:3],
{8},8<5[8:3],{4},,,{1}1-5[2:1],
{8},7,5,6,4,5,3,4,
{1}2-6[2:1],
{8},4,5,4,6,3,7,2,
{16}8bx/1bx,2,3,4,8bx,7,6,5,4bx,3,2,1,4bx,3,2,1,
{8}3/8x,4,8/3,2,8/1,2,8/3,4,
{16}8bx/1bx,7,6,5,1bx,2,3,4,5bx,6,7,8,5bx,6,7,8,
{8}1x/6,5,1/6,7,1/8,7,1/6,5,
{16}1bx/8bx,2,3,4,8bx,7,6,5,4bx,3,2,1,4bx,3,2,1,
{8}8x-4[16:1],8x,1-5[8:1],1,7-3[16:1],7,{4}2,
{16}1b,2,3,4,8,7,6,5,3,4,{8}2,{16}6,5,{8}7,
{1}1h[4:3],
{16}1,2,3,4,8,7,6,5,2,3,4,5,7,6,5,4,
8,1,{8}2h[16:1],{16}8,7,{8}6h[16:1],{16}3,4,{8}2,{16}6,5,{8}7,
{16}8,7,6,5,1,2,3,4,7,6,5,4,2,3,4,5,
1,8,{8}7h[16:1],{16}1,2,{8}3h[16:1],{4}8bw4[16:1],8,
1bw5[16:1],1,{16}2,3,4,5,8,7,6,5,
1,5,1,5,1,5,1,5,{8}1,6,7/3,4,
{16}5/1,8,7,6,1,2,3,4,7,6,5,4,8-4b[16:1],1,2,3,
{4}8bx/4,1-5b[16:1],1bx/8bx,{16}7,2,7,2,
{4}8/1,{16}1,6,1,6,2,5,2,5,3,6,2,6,
1,2,3,4,8,7,6,5,{12}3bx,2b,1b,5bx,6b,7b,
{4}1bx/8bx,{16}8,7,6,5,1,2,3,4,7,6,5,4,
2,3,4,5,8<5[16:1],3,8,2,{4}8x,{16}1>4[16:1],5,1,6,
{4}1x,{16}8/1,2,3,4,5bx,8,4,7,3,6,2,5,
1b,6,2,7,3,8,4,1,5b,8,4,7,3,6,2,5,
1b,5,1,5,1,5,1,5,1,5,1,5-8b[0.375##0.075],1-4b[16:1],5,1,5,
{2}1,{16}1,2,3,4,8,7,6,5,
{8}C,{4},{8}2/C,,{16}7,6,5,8,1,2,
3h[16:1]/B5,{8},{16}2h[16:1]/B6,{8},3h[16:1]/B7,{16}A7,A6,A5,A4,1,2,3,4,
{8}C,{4},{8}7/C,,{16}2,3,4,1,8,7,
6h[16:1]/B3,{8},{16}7h[16:1]/B4,{8},8h[16:1]/B5,{16}A5,A4,A3,A2,5,6,7,8,
{8}C,{4},{8}3/C,,{16}6,7,8,5,4,3,
2h[16:1]/B5,{8},{16}3h[16:1]/B6,{8},4h[16:1]/B7,{16}8h[16:1]/B3,{8},{16}7h[16:1]/B4,{4},{8}2/C,
{4},{8}6/C,,{16}3,2,1,4,5,6,
7h[16:1]/B2,{8},{16}6h[16:1]/B3,{8},5h[16:1],3,4,6,7,
{4}2b/8-4[16:1],{8}1,2b-5b[16:1],,5,{4}6b-1[16:1],
{8}2,3b-8b[16:1],,8,{4}7b-4[16:1],2b/7b-3[16:1],
7b/1-5[16:1],{8}8,7b-4b[16:1],,4,{4}3b-8[16:1],
{8}7,6b-1b[16:1],,1,{4}2b-5[16:1],7b/2b-6[16:1],
{16}2b/8-4[16:1],Cf,{8},2,1b-6b[16:1],,2,{4}3b-8[16:1],
{8}4,5b-2b[16:1],,6,{4}7b-4[16:1],7b/1b-5b[16:1],
{16}1b/8b,Cf,{8},{16}2,3,4,5,8,7,6,5,1,2,3,4,
6,7,8,1,5,4,3,2,6,7,8,1,5,4,3,2,
1,8,1,8,1,8,1,8,1,8,1,8,1-6b[16:1],8,1,8,
{2}1,{32}1,2,3,4,5,6,7,8,1,2,3,4,5,6,7,8,
{4}1-5b[16:1],{32}1b/8b,Cf,{16},,,4,3,2,1,8>2[16:1],6,8,6,
{8}8bx,{16}5-8[16:1],3,5,3,{8}5bx,{16}1-5[16:1],7,1,7,{8}1bx-3b[16:1],6,
{4}1bx/8bx,{16}1x,2,3,4,5,6,7,8,{8}6/1-4[16:1],7,
{4}8/1-6[16:1],2/1-4[16:1],7/1-6[16:1],3/1>4[16:1],
{8}1/7,6>4[8:1],1,{16}2/6x,1,8,7,6,5,{8}4/8-5[16:1],3/8,
8,{16}4-1[16:1],6,4,6,{8}4,{16}8-3[16:1],2,8,2,{8}8,1,
{16}5/B8/B1/E1,{8},{16}6/B1/B2/E2,{8},7/B3/B2/E3,{16}3,4,5,6,7,8,1,2,
{12}3bx,2b,1b,5bx,6b,7b,{24}3x,4,5,6,7,8,{32}1/6,5,4,3,2,1,8,7,
{8}6bx/2bx,{16}5,4,{8}5,7/3,{16}4,5,{8}4,{4}2-6[16:1]/7-3[16:1],
7/2/Cf,{8}8/2,8,7/3,7,6/4>1[16:1],6,
{4}6/4<7[16:1],2/4-1[16:1],6/4-7[16:1],4/2,
{12}1b,2b,3b,5b,6b,7b,{32}8bx/1bx,2,3,4,5,6,7,8,1-5[16:1],2,3,4,5,6,7,8,
{8}1,7-4[16:1],7,7/3,3-7[16:1],3,3/5<7[16:1],5,
{4}5/2-6[16:1],2/8-3[16:1],{8}8/1,{16}1,7,{4}1s5[8:1],
{1}1b,
{4},{8},{16}8,8,{8}8,8,{4}8,
{1}2>5[2:3],
,{8}7,
5,6,4,5,3,4,2,
{4},{8},{16}1,1,{8}1,1,{4}1,
{1}7<4[4:5],
{4},,,{8}3q6[2:1],3,
{2}3/6,7h[2:1],
{4}5-3[8:1],7-5[8:1],5,6p3[2:1],
{2}6/3,2h[2:1],
{8}4-6[8:1],1,{4}2-4[8:1],4,7-5[16:1],
7/4,6/2-4[16:1],2/5,3/8-6[16:1],
8/2,6/1-3[16:1],1/7,4/6,
{8}5/3,6,7/3,2,1/7,8,{4}8z4b[8:1]/1s5b[8:1],
{16}8/1/E1,C,{8}E5,,{16}4,5,4,6,{8}3,{4}7v4b[16:1]/2v5b[16:1],
{16}2/7,Cf,{4},{8}6/3,{16}7/4,3,2,1,4/8-4[16:1],5,6,7,
{8}8/1,{16}2,5,2-4[16:1],6,2,7,2x,8,7,6,5/4-7[16:1],3,2,1,
{8}4/8,6,{16}8,1,2,3,{8}4,7,8/2>5[16:1],{16}1,8,
{8}2-6[16:1],{16}6,6,{8}2-5[16:1],{16}7,7,{8}2,{16}6,6,{32}2>5[32:3],1,8,7,{8},{32}2b/1b,
8,7,6,{8},{16}6,5,6,4,6,3,6,3,7<4[16:1],2,8,1,
{8}7-3[16:1],{16}2,2,{8}7-4[16:1],{16}4,4,{8}7,{16}2,2,{32}7<4[32:3],8,1,2,{8},{32}8b/7b,
1,2,3,{8},{16}3,4,3,4,3,5,2,6,1>4[16:1],7,1,7,
{8}1-5[16:1],{16}5,5,{8}1-4[16:1],{16}6,6,{4}1>4[32:3],{32}8b/1b,7,6,5,{8},6/2-4[16:1],
6,6/2,6,6/1-3[16:1],6,6/1,6,
6/2-5[16:1],6,6/2,6,6/1-4[16:1],6,6/1,6,
3/7-5[16:1],3,3/7,3,3/8-6[16:1],3,3/8,3,
3/7-4[16:1],3,3/7,3,3/8-5[16:1],3,3/8-4b[16:1],3,
{4}8/2,{16}1,2,3,4,2,3,4,5,3,4,5,6,
4,5,6,7,5,6,7,8,6,7,8,1,7,8,1,2,
3bx,7,3,7,3,7,3,7,3,7,3,7,3-6b[16:1],7-2b[0.225##0.075],3,7,
{2}3,{16}1,5,2,6,3,7,4,8,
{8}5/1,{4},{8}4/8,{4},3/7,
{8},2,1,3,8,4,7,5,
{16}6,7,8,1,4,3,2,1,5,1,6,2,7,3,8,4,
{4}5/1,{16}1,8,7,6,5,4,3,2,1,4,3,2,
{8}1/5,{4},{8}2/6,{4},3/7,
{8},7,8,6,1,5,2,4,
{16}3,2,1,8,5,6,7,8,4,8,3,7,2,6,1,5,
4/8,1,2,3,8/4,5,6,7,{12}8/4,1/5,2/6,3/7,2/6,1/5,
{8}8/4,{4},{8}2/6,{4},3/7,
{8},1,5,2,6,3,7,4,
{16}8,7,6,5,4,3,2,1,4,3,2,1,3,2,1,8,
3/7,4,5,6,7,8,1,2,3/7,6,5,4,3,2,1,8,
{12}3,3,1,7,7,1,3,3,5,7,7,5,
3h,5,7h,3,1h,7,2h,8,6h,2,4h,6,
2,2,2,4,4,4,6,6,6,8,8,8,
{24}1b,2,3,7b,6,5,2b,3,4,8b,7,6,{32}2b,3,4,5,6,7,8,1,2b/5,4,3,2,1,8/4,7/3,6/2,
{8}5bxq1b[0.45##0.075]/1bxq5b[0.45##0.075],{4},{32}5bxp3b[8:11]/1bxp7b[8:11],C/B8/B7/B6/B5/B4/B3/B2/B1,{1},{4},,,{16},,,{8}3/8,
4,7,5,6,
4,5,{4}3,{8}8,2,7,1,
8,2,8,7pp3[2:3]/3pp7[2:3],{1},{4},,,{8},6qq2[8:13]/2qq6[8:13],
