&title=Kissing Lucifer
&artist=ETIA.
&first=0.05
&des=-彩彩bass-
&lv_5=14
&inote_5=(170)
{1},
{32}1bxs5b[8:7]`8bx-2-4-6-8[8:14],2x/7x,6x/3x,5x/4x,,,,,
{16},,,,,,,,,,,,,,,,,,,,,,,,,,,,E4,,,B3,,,,,,,,,,,,,E4,,,B3,,,,,,,,,,,,,
{16}E4/8V61-5[8:10],,,B3,,,,,,,,,,,,,E4,,,B3,,,,,,,,,,,,,
6pp5[8:5]/E4,,,B3,,,,,,,,,,,,,
{16}B2,B3,B4,,E8,E7,E6,,A1,A2,A3,,D8,D7,D6,,
{8}4v3-1[8:4],,6,7,,7,5,,7v6-4[8:4],,1,3,,3,2,2,
7-5[32:5],,3-7[32:5],,8x,,,6/3-1[32:5],,5,5-7-3[16:5],,1x,2,,,
{8}5v7-1[8:4],4,3,2,,2,4,,2-4v6[8:4],,7,5,,7,8-6-4-2-8b[8:8],8,3h[8:4],,,,,,,,
Chf[8:8],,,,,,,,
{16},,6,,4,5,,2/4,,,3,,5,4,,7/5
,,,6,,4,5,,2/1,,,3,,5,4,,7/8
,,,6,,4,5,,3/1,,,3,,5,4,,6/8
,,,6,,4,5,,3/1,,5,4,6,1,2,3,4,
5b/7,,7,,1,8,,2/4,,4,3,,8,1,,7/5
,,5,6,,1,8,,2/4,,4,3,,8,1,,7/5
,,4,5,,2,4,,1/8,,5,4,,7,5,,8/1
,,4,5,,2,4,,
{32}1x,8x,1xh[32:9],,,,,,,,C,,,,,,,,
{4}8xV64[8:4]/3x,3,3,3,2x-6-4[8:4]/8x,8,8,8,
8x-4-7[8:4]/1x,1,1,1,8x/E4/B3,8,7xv5[8:1]*v1[8:1]/B3/E3,,
{8}E1/B1/6b,6,6,6,E2/B2/5b,5,5,5,E7/B7/4b,4,4,4,E8/B8/3b,3,3,3,
{16}2b,4,3,7,5,6,3,4,1b,8,2,7,{24}1x-5[8:1],8x,1x,8x,1x,8x,
{4}1x-7-5-3b[8:3]*<1[8:4],,,,
{8}4v3-1b[8:2]/2xh[8:1],,5,6,7xh[8:5],,{24}2b,3x,4x,5x,6x,,8v5[32:3],1,2,
{16}3,,8/4x^7b[32:3],,,2b,,,3x,,6,2,7,1,
8xV26[16:4],,,7h[16:1],,5h[16:1],,,
8xV25[16:4],,,7h[16:1],,6h[16:1],,,
8xV26[16:4],,,7h[16:1],,5h[16:1],,,
5,,4b/3b,,,2b/8b,,,
{8}5bv7-1b[8:2]/7b,,1,2,3xh[8:5],,{24}8b,7x,6x,5x,4x,,2v5[32:3],1,8,
{16}7,,2/6x-2b[32:3],,,8b,,,5x,,3h[16:1],7h[16:1],2h[16:1],8h[16:1],
1xV73[16:4],,,2h[16:1],,4h[16:1],,,
1xV74[16:4],,,2h[16:1],,3h[16:1],,,
1h[8:1],,6,,5,3,,2/7,,6,5,8,2,1,3,8h[16:17],
{32}D5/E5f,D4,D3,D2,D1,D8,D7,D6,D5,D4,D3,D2,D1,D8,D7,D6,
{24}E5,E4,E3,E2,E1,E8,E7,E6,E5,E4,E3,E2,
{16}B8,B7,B6,B5,{12}B4,B3,B2,
{8}5xw1[8:1],,,,
{32}7/2b-4b[8:1],6x,5x-1[32:3],,,,,,,,,,,,,,
7/3b-8b[8:1],6x,5x-8[32:3],,,,,,,,,,,,,,
7/1b-4b[8:1],6x,5xv8[32:3],,,,,,,,,,,,,,
{12}6h,7h,8h,1h,2h,3h,4b>5[32:7]/5b,,,
{8}4x/2h[8:6],,E5f/D5,,
{24}7b,6x,5x,4x,3x,,1v4[32:3],8,7,
{16}6,,1/5x^2b[32:3],,,6xv1[8:1]*v1[8:1],,,B6f,,,,,,
{32}2/8b-5b[8:1],3x,4xv1[32:3],,,,,,,,,,,,,,
2/6b-8b[8:1],3x,4x-8[32:3],,,,,,,,,,,,,,
{12}3h,2h,1h,8h,7h,6h,4h[8:4]/5h[8:2],,,,,,
{8}Chf[8:6],,,,,,1^4qq5[8:4],,,,7,,6,8/7,1^6pp5[16:7],2,
B3/B4/E4f,,,,4p3^8[16:7]/2,,B6f/E7/E6,,,,5,,7,8/1,2p1<5[16:7],3,
A5/D5/E5f/A4,,,,3^8pp4[16:7]/4,,A7/D7/E7f/A6,,,,7,,6pp5[8:2]/4qq5[8:2],5,,,,,
{32}2b-5b[8:1],,,,,,,,6/2,B3f,E5,,8b-4b[8:1],,,,,,,,8/2,B8f,B4,,
1b-5b[8:1],,,,,,,,1/6,B1f,B5,,7b-4b[8:1],,,,,,,,7/8,B6f,E5,,1,,,,2,,,,
{32}3x,5hx[32:31],,,,,,,,,,,,,,,,,,,,,,,,,,,,,,,
3x,4hx[32:31],,,,,,,,,,,,,,,,,,,,,,,,,,,,,,,
6x,5hx[32:31],,,,,,,,,,,,,,,B7,,,,,,,,,,,,,,,,
3x,4hx[32:31],,,,,,,,,,,,,,,E2,,,,,,,,,,,,,,,,
6x,5x-7-4-8[8:4],,,,,,,E4,,,,,,,,E3,,,,,,,,E2,,,,,,,,
3x,4x-2-8v3[8:4],,,,,,,E8,,,,,,,,E7,,,,,,,,E6,,,,,,,,
7x,8x-5-2-7[8:4],,,,,,,A4,,,,,,,,A3,,,,,,,,C,,,,,,,,
2x,1x<2[16:8]*>8[16:8],,,,,,,1x,,,,,,,,,,,,,,,,,,,,,,,,
{8}7/5,,2/4,,7/5,,2/4,,8/5,,1/4,,8/5,,1/4,,
7/5,6,2/4,3,7/5,6,2/4,3,8/5,7,1/4,2,8-3[8:1]*-5[8:1]/4,1/7,,,
{8}6/4,4,8/4,4,
4/5,5,1/5,5,
4/6,6,2/6,6,
4/3,3,7/3,3,
{16}7,5,6,2,4,3,6,5,8,1,7,2,{24}8xq1-3-5-7[8:5],1x,8x,1x,8x,1x,
{8}8x,,,,,4x,3-7[8:1],2,
1/3b-1^7-5b[8:6]*^1-7^5^3^1[8:10]/Cf,,,,,,,,,,,,7w3[8:1],,,,
{16}8xb-6[8:1],,4,4,8-2b[8:1],,3,,8x-6[8:1],,4,4,8-2b[8:1],,5,,
8x-5[8:1],,4,4,8-3b[8:1],,3,,8b/4b^7b[8:1],,,,4b/1bw5b[8:1],,,,
{8}1b,,7xv4[8:1],4V68[16:3],7x,3V15[16:3],2x,3,
7x-4[8:1],6,2x-5V38[16:5],1,7x-3b[8:1],6x,7b,,
{16}1x-3[8:1],,5,5,1-7b[8:1],,4,,
1x-4[8:1],,5,5,1-6b[8:1],,6,,
1,,4,,5,3,,2/7,,6,5,7,2,1,4,7,
5b-7-1-3>5[16:18],,4h[16:1],,,,4h[16:1],,,,4h[16:1],,,,4h[16:1],,,,4h[16:1],,,,
4h[16:1],,4w8[8:1],,,,,,,,
{32}1x-7[8:1],2,3x,,,,5,,1b,,,,4,,,,8-6[8:1],1,2x,,,,4,,8b,,,,5,,,,
1-7[8:1],2,3x,,,,5,,1b-3b[8:1],,,,4,,,,
{4}1b/5b-2b[8:1],8bw4b[8:1]/5b,
{16}8b,,,,7,3,5,3,1,3,7,3,7-5b[8:1],5,7,3,7,1b,,,
4,6,8,6,2-5b[8:1],4,2,6,2b,,,,
{32}8-2[8:1],7,6x,,,,4,,8b,,,,5,,,,1-3[8:1],8,7x,,,,5,,1b,,,,4,,,,
{16}6,5,7,4,6,2,5,3,6,4,7,2,{24}8,1,8,1,8,1,
{32}2b/7b,,,,,,,,,,1b,2x,3x,4x,,,1b,2x,3x,4x,,,,,,,8b,7x,6x,5x,,,8b,7x,6x,5x,,,,,,,
2b,3x,4x,5x,,,2b,3x,4x,5xw1b[16:1],,,,,B5f/E6/E5/A6/A4/B6/B4,,,,,,,,
8b,7x,6x,5x,,,,,,,1b,2x,3x,4x,,,2b,3x,4x,5x,,,,,,,
7b,6x,5x,4x,,,2b,3x,4x,5x,8b,7x,6x,5x,,,1b,2x,3x,4x,,,2b,3x,4x,5x,
{16}1x,8x,8x,8x,8x,8x,
{32}1b,2x,3x,4x,1xb,2x,3x,4x,,,1xb/8xb,,,,,,8b,7x,6x,5x,8xb,7x,6x,5x,,,8xb/1xb,,,,,,
2b,3x,4x,5x,2xb,3x,4x,5x,,,1xb/8xb,,,,,,7b,6x,5x,4x,7xb,6x,5x,4x,,,8xb/1xb,,,,
{16}2b/4b,2b/4b,,4b/5b,,7b/5b,7b/5b,,6b,
{32}1xb,2xb,3xb,4xb,7b,,7b,,2xb,3xb,4xb,5xb,6xb,7xb,8xb,1xb,
{16}A2/D2f,,5,,4,6,,7/2,,3,4,2,7,8,2,5,3/4,,,,
{32}8bz4b[8:8]`1b-7-5-3-1<1[8:32],7b/2b,3b/6b,4b/5b,,,,,{4},,,,,,,,,,,,,,,,,,
{16}B4,B3,B2,B1,E6,E7,E8,E1,A4,A3,A2,A1,D6,D7,D8,D1,,,,,,,,,,,,
