&title=����
&artist=����
&des=Reishi
&wholebpm=161
&first=0
&amsg_first=
&lv_1=
&lv_2=
&lv_3=
&lv_4=
&lv_5=13
&first_1=
&first_2=
&first_3=
&first_4=
&first_5=
&seek=
&wait=0
&inote_5=
(161)
{24},,,,,,,,,,,
{8}4,,35,,3,,4,,
{8}5,,46,,6,,5,,
{8}1,,2,,35,,4,,
{8}8,,7,,64,,5,,
{4}3h[8:14],4,5,6,
{4}5,4,2,1,
{4}6h[8:14],5,4,3,
{4}4,5,7,8,
{8}1,3,2,4,3,5,4,6,
{8}8,6,7,5,6,4,5,3,
{16}1,,,34,,,8,,8,,,56,,,1,,
{16}6,,,45,,,2,,3,4,3,,7b,,,,
{16}8,,,65,,,1,,1,,,34,,,8,,
{16}3,,,54,,,7,,6,5,6,,2b,,,,
{16}1,,,3,,,45,,45,,,8,,,6,,
{16}1,,,36,,,8,,4,5,4,,3b/6b,,,,
{16}1,,,28,,,3,,6,,,8,,,8,,
{16}17,2,3,,82,7,6,,38,4,5,,61,5,4,,
{16},,2,1,2,,7,8,7,,45,,3,,6,,
{16}3-7[8:1]/6,,,,6-4[8:1]/3,,,,3-7[8:1]/6,,,,63,,6,,
{16},,3,4,3,,6,5,6,,18,,2,,7,,
{16}2-8[8:1]/7,,,,7-3[8:1]/2,,,,2-8[8:1]/7,,,,27,,7,,
{16}2-5[8:1]/7,,,,7-3[8:1]/2,,,,2,,1h[16:4],,,,,,
{16}2-4[8:1]/6,,,,6-8[8:1]/2,,,,2-7[8:1]/6,,,,6-3[8:1]/2,,,,
{16}1,,8,,7h[16:10]/3h[16:10],,,,,,,,,,,,
{16}4,5,4,,5,4,5,,3,6,3,,6,3,6,,
{16},,7,8,7,,2,1,2,,54,,6,,3,,
{16}6-2[8:1]/3b,,,,3-5[8:1]/6b,,,,6-2[8:1]/3b,,,,36,,3,,
{16},,6,5,6,,3,4,3,,81,,7,,2,,
{16}7-1[8:1]/2b,,,,2-6[8:1]/7b,,,,7-1[8:1]/2b,,,,72,,2,,
{16}7-4[8:1]/2b,,,,2-6[8:1]/7b,,,,7,,8h[16:4],,,,,,
{16}3-1[8:1]/4b,,,,4-6[8:1]/3b,,,,3-8[8:1]/4b,,,,4-7[8:1]/3b,,4,,
{16}3-7[7:1]/4b,,,,3/4-8[8:1],,4,,4/3>8[8:1],,,,3/4<7[8:1],,4,,
{16}43,,,,1h[16:3]/6h[16:3],,,,2h[16:3]/5h[16:3],,,,87,,,,
{16}2,,,1,,,34,,56,,,7,,,8,,
{16}27,,,4,,,5,,18,27,36,,36,,,,
{16}5,,,4,,,67,,81,,,2,,,3,,
{16}52,,,7,,,8,,43,52,61,,61,,,,
{16}7,,,6,,,81,,23,,,4,,,5,,
{16}74,,,1,,,2,,65,74,83,,83,,,,
{16}1,,,28,,,3,,6,,,8,,,17,,
{16}4,3,2,1,8,7,6,5,{24}4,3,2,1,8,7,6,5,4,3,2,5qq6[16:26]/1qq2[16:26],
{1},,
{8}1-5[4:1],,,5V31[1:1]*V71[1:1],,,,,
{1},
{8}2-7[4:1],,,7<3[16:12],,,,,
{16}8,,,,8,,,,8,,1,,8,,1,,
{16}7,2,7,2,7,2,6,3,6,3,6,3,5,4,5,4,
{16}5,,,36,,,36,,{32}1,2,3,4,5,6,7,8,{16}1/5b,,,,
{8}7h[8:5]/1-3[8:1],,1,,1-4[8:1],,7h[8:1]/1,,
{8}7h[8:3]/1-5[8:1],,1,,7h[8:1]/1>3[8:1],,7h[8:1]/1,,
{8}6h[8:3]/1-4[8:1],,1,,7h[8:3]/1-5[8:1],,1,,
{8}7h[8:5]/1-3[8:1],,1,,1,,{16}5,4,5,4,
{8}6h[8:5],,2,,2,,6h[8:1],,
{8}6h[8:3]/2-4[8:1],,2-8[8:1],,6h[8:1]/2-4[8:1],,6h[8:1]/2-8[8:1],,
{8}6h[8:3]/2-4[8:1],,2-8[8:1],,6h[8:1]/2-4[8:1],,6h[8:1]/2-8[8:1],,
{8}6h[8:3]/2-4[8:1],,2-8[8:1],,6h[8:3]/2-4[8:1],,2,,
{8}2h[8:5]/8-6[8:1],,8,,8-5[8:1],,2h[8:1]/8,,
{8}2h[8:3]/8-4[8:1],,8,,2h[8:1]/8<6[8:1],,2h[8:1]/8,,
{8}2h[8:5]/8-5[8:1],,8,,8-4[8:1],,28,2,
{8}3h[8:1]/7-5[8:1],,3h[8:1]/7-1[8:1],,3h[8:1]/7-5[8:1],,3h[8:1]/7,,
{8}4b,,,,5b,,,,
{8}1b/2,,3b/4,,5b/6,,7b/8,,
{16}4,5,3,6,2,7,1,8,2,7,3,6,4,5,3,6,
{2}1>5[8:1]/5<1[8:1],5>1[8:1]/1<5[8:1],
{8}1h[8:6]/5h[8:6],,,,,,,,
{8}2-6[8:1]/5,,5-3[8:1]/2,,2-6[8:1]/5,,5-3[8:1]/2,,
{8}1-7[8:1]/5,,6-2[8:1]/1,,1-7[8:1]/6,,6-2[8:1]/1,,
{8}1-7[8:1]/6,,5-3[8:1]/1,,1-7[8:1]/5b,,51,,
{8}8<1[8:22]/4h[8:24],,,,
{1},,,,
E
