&title=How To Make 音ゲ~曲!
&artist=F Rabbeat
&first=0.01
&des=柠檬红茶
&clock_count=4
&lv_5=14
&inote_5=(185)
{1}
,,
{1}
3hx[4:5],
{4}
C,,3,,
{1}
6hx[4:5],
{4}
C,,5,,
{1}
2hx[1:1],
{4}
C,3h[4:7],,,
{1}
8xz4[1:1],,
{16}
3b/6b,,,,5,5,3hbx[2:3]/6bx,,,,
{4}
6,6,6,6,6,
{8}
6,4b/5b,,
{16}
3,3,2bx/5hbx[4:5],,,,
{4}
2,2,2,2,
{8}
2,
{16}
7,8,7,,
{8}
1b/6b,,1/2,3b/8b,,
{8}
1,8,7,6h[4:1],,5,4h[4:1],,5,5,4,3hb[4:1],,4,5hb[4:1],,1,2,3,
{4}
3-6[12:1],7-2[12:1],4w8[12:1]b,
{24}
4,Cf,,,,,
{8}
1x/2x,8,7,6,4/5,3,2h[4:1],,
{8}
4,3,5,4,6h[4:1],5,5,,
{8}
8x/7x,1,6,2,3/5,4,6h[4:1],,
{8}
4,5,3,4,2h[4:1],1,1x,,
{8}
4x/6x,5,3/5,4,4/7,6,2/5,3,
{8}
4x/8x,7,1/5,2,4/8,6,1/5,3,
{8}
5x/7x,4/6,3/5,2/4,1/3,2/8,3/7,4/6,
{4}
E8/B7/B6/E6,B8/B1/B2/C/B5/B4/E4,B8/B1/B2/C/B3/B4/B5,
{4}
A1/E1/B8/B7/E7/Cf/E3/D3/E2/B2/B3/E4,
{32}
1bx/8bx,2bx/7bx,3bx/6bx,4bx/5bx,
{8}
,
{16}
6,5,6,,3,4,3,,6,5,7,,3,4,2,,6,5,8,,3,4,1,,8w4[12:1]b,,1/7,,
{4}
8b,
{16}
3,5,3,,3,6,3,,
{16}
3,7,3,,3,8,3,,3,7,3,,3,6,3,,2h[8:1],,7,,
{32}
1bx-5[12:1]/8bx,2bx/7bx,3bx/6bx,4bx/5bx,
{8}
,1/8,7,4-7[12:1]/6,,3/4,2,1-5[12:1]/8,,
{8}
1/2,3,4-8[12:1]/5,,4/5,6,1/7-3[12:1],,
{8}
7/8,1,2-5[12:1]/4,,2/5,6,
{4}
4/7s3[4:1],3-7[8:1],1-5[8:1],5w1[12:1]b,
{24}
,Cf,,,,,
{16}
2h[8:1],,8,,2h[8:1],,7,7,2h[8:1],,8,,
{16}
2h[8:1],,7,,2h[8:1],,7,6,2h[8:1]/5,,6,5,4/2h[8:1],,,,
{16}
1/7,,6,,2/8,,4,5,4,,3,4,3,,5,,
{16}
4/6,,7,,3/5,,2,,1/3,,8,,1/7,2,3,4,
{4}
5b/6b,
{16}
7h[8:1],,1,,7h[8:1],,2,2,7h[8:1],,1,,
{16}
7h[8:1],,2,,7h[8:1],,3,3,7h[8:1],,2,3,4/7h[8:1],,3,,
{8}
6h[8:1],5h[8:1],4h[8:1],3h[8:1],
{8}
2h[8:1],1h[8:1],8h[8:1],7h[8:1],
{16}
6x,4,5,3,4,2,3,1,2,8,1,7,8>5[4:1]qq4[4:1]-7[8:1],,,,
{4}
8bx,,,1<4[4:1]pp5[4:1]-2[8:1],1bx,,,,
{8}
4/7,6h[4:1],3,3,
{16}
5,4,5,4,5<4[2:1],4>5[16:7],5,4,
{4}
5,,,Cf/B6/B7/B2/B3,
{4}
7h[4:1],6-8[12:1],
{32}
A1,B1,C,B5,A5,,,,
{4}
,
{4}
2h[4:1],3-1[12:1],
{32}
A8,B8,C,B4,A4,,,,
{4}
,
{8}
1-5[12:1],2-4[12:1],1,2,7-5[12:1],8-4[12:1],7,8,
{4}
6h[1:1],
{48}
A2,E3,B3,B4,E5,A5,,,,,,,A7,E7,B6,B5,E5,A4,,,,,,,
{48}
A2,E3,B3,B4,E5,A5,,,,,,,
{4}
2h[4:1],3-1[12:1],
{32}
A8,B8,C,B4,A4,,,,
{4}
,
{4}
7h[4:1],6-8[12:1]`,
{32}
A1,B1,C,B5,A5,,,,
{4}
,
{8}
8-4[12:1],7-5[12:1],8,7,2-4[12:1],1-5[12:1],2,1,
{4}
3h[8:3],
{48}
A6,D7,A7,D8,A8,D1,A1,,,,,,
{4}
4xw8[12:1]b/5xw1[12:1],,
{4}
6h[4:1],2>5[8:1]V37[4:1],
{16}
6x,,,6x,,,6x,,
{4}
1h[4:1],6<1[8:1]V73[4:1],
{16}
2x,,,2x,,,2x,,
{8}
1/4,4,5,6,
{16}
2/7,,,2/8,,,1/4,,
{4}
2p4[4:1]q1[16:3]/4,2/5,
{16}
6x,,,6x,,,6x,,
{4}
3h[4:1],7<4[8:1]V62[4:1],
{16}
3x,,,3x,,,3x,,
{4}
8h[4:1],3>8[8:1]V26[4:1],
{16}
7x,,,7x,,,7x,,
{8}
8/5,5,4,3,
{16}
7/2,,,7/1,,,8/5,,
{4}
7/5,4/6,3/5,
{4}
2qq7[4:3]>3[2:1]-6[8:3]V42[2:1]-8[4:1]/4,A2f/D7,,,
{1}
,,
{4}
,4h[4:3]/6h[2:1],,,5,3h[2:3]/5h[4:3],,,,1h[4:3],,,2,
{8}
2h[1:1]/8h[4:1],,,7h[4:1],,,6h[4:1],,,3x/5x,
{8}
,,8,2,7,3,6bx>4[6:1]pp8[12:5]/B1/B2/E2f,,,,3-1[12:1],,3b,,
{4}
,7h[4:1],A4/E4/E5,6b,
{8}
3bx<5[6:1]qq1[12:5]/B8/B7/E8f,,,,6-8[12:1],,6b,,
{4}
,2h[4:1],A5/E6/E5,3b,
{8}
7bx>1[6:1]qq6[12:5]/B4/B3/E4f,,,,2-5[12:1],,2b,,
{4}
,3h[4:1],A8/E8/E1,2b,
{8}
7hbx[4:5]/1hx[4:1],,,2hx[4:1],,,3hx[2:1],,
{2}
,4bh[4:1]/6h[4:1],
{8}
5x/7x,5,5V71[4:1],5,3x/5x,3,3,3,
{8}
2x/4x,4,4V28[4:1],4,4x/6x,6,6,6,
{8}
1x/6x,1,1V35[4:1],1,7x/1x,7,7,7,
{8}
6x/8x,8,8V64[4:1],8,8x/2x,2,2,2,
{8}
4/6,7,3/5,2,4/6,7,3/5,2,
{8}
4/6,8,3/5,1,4/6,8,3/5,1,5/6,7,3/4,2,5/6,8,3/4,1,
{4}
A1/E1/B8/B7/E7/C/E3/D3/E2/B2/B3/E4,
{4}
B8/B1/B2/C/B3/B4/B5,B8/B1/B2/C/B5/B4/E4,E8/B7/B6/E6,
{4}
3hx[4:1]/6hx[4:1],,3-8[12:1]/6-1[12:1],
{12}
3b/6b/E1f/A1/A8,,,
{16}
1/2,,3,4,3,,5,,8<6[8:1]/1,,2,,1,2,3,4,
{16}
5,,7,8,7,,1,,6,,4,5,4,,6,,
{16}
3,,1-6[12:1],2,,2,1,,3,,7,,2,6,4,5,
{16}
3h[4:1],,1b,,4h[4:1],,1b,,3h[4:1],,1b,,1b,,,,
{16}
8/7,,6,5,6,,4,,1>3[8:1]/8,,7,,8,7,6,5,
{16}
4,,2,1,3,,8,,7,,4,5,2b,,6,,
{16}
1,,7-4[12:1],8,,8,7,,3,,7,,2,6,4,5h[16:5],
{4}
,4x,
{16}
3x/6x,,,3x/6x,,,3x/6x,,
{16}
8/7,,6,5,6,,4,,1>3[8:1]/8,,7,,8,7,6,5,
{16}
4,,2,1,2,,8,,3,,5,4,5,,3,,
{16}
6,,1-4[12:1],8,,8,1,,6,,2,,7,3,5,4,
{16}
6h[4:1],,8b,,4h[4:1],,1b,,6h[4:1],,8b,,8b,,,,
{16}
4/3,,2,1,2,,8,,5<7[8:1]/4,,3,,1,2,3,4,
{16}
5,,6,5,7,,4,,3,,8,1,6b,,2,,
{16}
8,,2-5[12:1],1,,1,2,,6,,2,,7,3,5,4,
{8}
6h[4:1],7,3h[4:1],2,6h[4:1],8,3h[8:1],
{16}
7,6,
{4}
4b/5b,
{16}
8h[8:1]/7,6,5,,8h[8:1]/1,2,3,,8h[8:1]/7,6,5,,8h[8:1]/1,2,3,,
{16}
8h[8:1]/6,5,4,,8h[8:1]/2,3,4,,8h[8:1]/6,5,4,,8h[8:1]/2,3,4,,
{16}
7,1,8,,2,8,1,,7,1,8,,2,8,1,,6,1,7,,3,8,2,7x,,,1x/8x,,2bx/7bx,,,,
{16}
1h[8:1]/2,3,4,,1h[8:1]/8,7,6,,1h[8:1]/2,3,4,,1h[8:1]/8,7,6,,
{16}
1h[8:1]/3,4,5,,1h[8:1]/7,6,5,,1h[8:1]/3,4,5,,1h[8:1]/7,6,5,,
{16}
3,4,3,,6,5,7,,3,4,1,,
{8}
2/8,1/3,2/4,3/5,4/6,5/7,
{4}
5x-1[12:1]b/7x-4[12:1]b,5b/7b,
{8}
2bq6[12:1]/6b,1,2b/7bp3[12:1],8,7b/2bq6[12:1],1,
{8}
2b/7bp3[12:1],8,2b/7b,1,4b/8b,5/7,
{16}
6b,4,5,3,
{8}
4b-8[12:1],3,4b/5b-1[12:1],6,5b/4b-8[12:1],3,4b/5b-1[12:1],6,
{8}
4b-8[12:1]/5b,3,4b/5b,6,1b/7b,2/8,1b/3b,
{16}
5x,4x,5xbw1[8:1]b,
