&title=snooze (feat. SHIKI)
&artist=wotaku; SHIKI
&first=0.06
&des=月咏
&lv_6=14
&inote_6=(150){4},
{4}3/7-3^6[2:1]*^2[4:1],,,,4-1-5[2:1]/5-8[4:1],,,,
{4}1<4[2:1]/4^1[4:1],,,,1/2>8[2:1],,8^2[6:1]*-2[6:1],,
{4}3/4-6[8:1]*-8[8:1],4,7/8-2[8:1]*-4[8:1],8,
{4}2/6-2[8:1],26,1/2<4[4:1],28,
{8}8,8,4,4,{16}7,3,6,2,{32}5,4,3,2,1,8,7,6,
{4}1h[2:1]/5h[2:1],,,1-4[8:1]/5-8[8:1],1q3[2:1]/5q7[2:1],,,,
{16}1h[16:3]/7,,,5,1,,15,,2-5[8:1],,6-1[8:1],,2,,6,,
{16}3h[16:3],,,7,3,,37,,4-1[8:1],,8-5[8:1],,4,,8,,
{16}2h[16:3],,,6,2,,26,,3-6[8:1],,7-2[8:1],,3,,7,,
{16}4h[16:3],,,8,4,,15,,5>2[8:1],,8,,8,7,6,,
{16}6h[16:3],,,1,5,,26,,6v1[8:1],,2^5[8:1],,A6,,A2,,
{16}7h[16:3],,,3,7,,48,,8-5[8:1],,4v1[8:1],,A8,,A4,,
{16}6h[16:3],,,2,6,,37,,7-3[8:1],,3-7[8:1],,,,,,
{16}8b^3[12:1]*-3[12:1],,,8b^5[12:1]*-5[12:1],,,8bw4[8:1],,,,,,A4f,,,,
{16}17,,3,4,3,,6-1[8:1]/8,,2-5[8:1]/4,,6,,2,,8,,
{16}28,,6,5,6,,1/3-8[8:1],,5/7-4[8:1],,3,,7,,1,,
{16}18,,3,4,3,,1/5-1[8:1],,2-6[8:1]/6,,5,,2,,8,,
{16}1h[8:1]/2h[8:1],,,1h[8:1]/8h[8:1],,,78,,
{4}6^7-2[12:1]/7,{16}7b,A2f,,,
{16}15,,1,5,1,6,2,7,3,8,4,7,3,6,2,5,{32}2,3,4,,6,7,8,,
{32}3,4,5,,8,7,6,,4,3,2,,7,6,4h[16:1]/5h[16:3],,,,,,,,,,
{16}78,,2,4,3,4,2-5[8:1],,3,,2/6-1[8:1],,7,,26,,
{16}2,2,8,8,1,1,7,7,{32}1xq5[8:1]*p5[8:1],2,3,4,5,6,7,8,1,,,,,,,,
{32}1b,2,3,4,5,,,,7b,6,5,4,3,,,,2,3,4,,8,7,6,5,
{16}8-4[8:1]/4-8[8:1],,,,84,,,,8,,7-4[8:1],8,,8,7,,
{8}2-4[8:1],3,2/5-7[8:1],6,2-6[8:1]/5,1,2/8-4[8:1],1,2^5[8:1]/8,2,,
{8}7-4[8:1],4-7[8:1],7V51[4:1],,,,,
{16}1h[64:1],1h[64:1],1h[64:1],1h[64:1],1h[64:1],1h[64:1],
{16}1h[64:1],1h[64:1],1h[64:1],1h[64:1],1h[64:1],1h[64:1],
{16}1-5[12:1]b,1h[64:1],1h[64:1],1h[64:1],1<2[8:3],,,,
{8}7h[8:3],,,,,1pp1[4:1],8qq8[4:1],A1,A8,,,6^1[8:1],1-6[8:1],6V84[4:1],,,
{8}1-5[8:1],1,4-8[8:1],4,,,3h[8:3],7h[4:1],,,3-8[8:1]/7-4[8:1],,
{8}3V57[4:1]/7V13[4:1],,37,,,1-5[8:1],28,,,
{16}7,5,7,,2,4,2,,7-4[8:1],5,6,5,7,,,,2,4,3,,7,5,6,,2<3[8:3],1,2,1,2,,
{8},,,{16}15,26,37,,48,37,26,,15,B1/B5,,3/7<3[16:3],B3/B7,,1h[4:1],,,,,,
{16}1-4[8:1]*-6[8:1],,28,,,,,,7,7,4,,2,2,5,,8,8,3-7[12:1],,45,,,,
{16}6,6,1,,3,3,8,,5,6,1,4,3,8,2,7,1x>4[8:3]/6x^1[8:3],,{4},,,
{8}1>1[1:1],,C,,,,,,2>8[4:3],,C,,,,,,3<7[8:3],,
{8}C,,3-7[8:3],,C,,3V17[2:1],,C,,,,,,1-3-5-7[1:1],,
{8}C,,,,,,4-2-8-6[1:1],,C,,,,,,,,1<2[8:5],,,,1h[8:3],,,,18,
{16}1,2,,2,3,,3,4,,4,5h[8:1],,{24}7x,6x,5x,4x,,,
{16}1,8,,8,7,,7,6,,6,5h[8:1],,{24}3x,4x,5x,6x,,,
{16}2-6[8:1],1,,1,2,,7^5[12:1],8,,8,7,,{24}4x,3x,2x,
{16}1xh[8:1],,8h[16:3],,7,7,,,1h[8:1],,{24}2-6[12:1],3,4,5,,,,,,,,,
{16}7-4[12:1],8,,8,7,,2^5[8:1],1,,1,2,,{24}6x,7x,8x,1xh[8:1],,,
{16}3,3h[8:1],,5,5h[8:1],,7,7h[8:1],,8,8h[8:1],,{32}1x,2x,3x,4x,5x/6,,,,
{16}7h[16:1],5,,7h[16:1],4,,8h[16:1],3,,8h[16:1],2,,{32}1,28,37,46,{4}5w1[4:1],,,
{16}A8/D8/A7,,,,1-7[12:1]/2,,,,,,3,3,2-6[12:1],,,2/5-1[12:1],,,5/8w4[8:1],,
{16},,,,,,15,,3/7-3[8:1],,,,1-4[8:1]*-6[8:1]/7,,,,1,,,,
{8}28,,{48}2-6[8:1],D3,A3,D4,A4,,8-4[8:1],D8,A7,D7,A6,,2,,,,,,8,,,,,,
{8}1w5[8:1],,1,,1/2-6[8:1],3,2/7-4[8:1],8,17,,26,,
{16}3,3,5,5,7,7,1b/2q5[4:1],,,,2,8,,8h[8:1],,6-2[8:1],
{16}6,,,7,,,37,,2^3-5[16:3]/6V84[16:3],2/6,,,,,,,{32}E5,E4,E3,,,,,,
{8}1/7^4[8:1],,,2-6[8:1],7-4[8:1],2,7,,5-1[8:1]*-2[8:1],,5,,
{16}2-5[12:1]/6-2[12:1],,,,26,,,4-1[12:1]/8-5[12:1],,,
{8}48,,6-1[12:1],2-6[12:1],6,2,,3/6<7-1[8:1],,3>2-8^7[8:1],,6,,
{16}2-5[12:1]/6,,,2/6-2[12:1],,,6,,,,48,,12,,,,
{16}3-1[12:1]/8-4[12:1],,,38,,,B6/E6/E7,,
{8}5/7-3[8:1],,5-1[8:1]/7,,5/8-4[8:1],,2-6[8:1]/8,,
{8}2/5^8[8:1],,1^2-4[8:1]/5,,1/8-6^5[8:1],,8/4^1[8:1],,
{8}5,6^3[8:1],7,8,1^6[8:1],2,3,4,{16}5,6,5,6,5,6,5,6,
{32}4b,3,2,1,8,7,6,5,4b,3,2,1,8,7,6,5,
{8}8b-4[8:1]/4bv2-8[8:1],,C,,{16}4/6qq4[8:1],,,5,65,,2qq8[8:1],,,,
{16}1-5[8:1],,1,,,,3pp8[2:1],,,4,43,,7,,7-4[8:1],,,,7,,,,
{16}2-6[8:1]/5,,,,{8}2,5-1[8:1],2-4[8:1],5-7[8:1],2-6[8:1],5,2,5,
{8}2qq4[4:1]/7pp4[4:1],,27,,A4,,{16}3/5-1[8:1],,,,56,,7-3[8:1],,,,
{16}37,,1w5[8:1],,,,1,,,E1/E2/B1,,,67,,3/4-8[8:1],,,,45,,,,
{16}7V51[4:1],,,5,,,8-4-2[4:1],,,,8,,1,,,,4-2[8:1]/5,,,1/2-5[8:1],,,B8/E1/E8,,,,
{8}4b/8b,2b/6b,3b/7b,2b-6[8:1]/8b-4[8:1],,2>1[4:1]/8<1[4:1],,,,,
{16}26,,3/4h[4:1],,,,5,,1,3,2,,8,6,7,,3-7[8:1],4,3,2,3,,,,
{16}6,6,E1,,3,3,E1,,2qq5[8:3],4,8,6,2,,,,,,,,
{16}48,37,26,,15,26,37,,48,48,,2>6[16:3]/6,26,,8h[4:1],,,,,,,,
{16}1h[4:1]/7,,,,5,,1,,8,8,B4/E5/B5/E6/B6,,1,1,B5/E5/B4/E4/B3,,3-7[12:1],,45,,,,
{16}6,6,1,,3,3,8^5[16:3],,6^3[16:3],,4^1[16:3],,
{8}2^7[16:3],8<8[2:1]b,6-4-2-8-6-4[8:5],,,,,,,1h[128:1],,
{8}8h[4:1],,2,{16}7,5,{8}7>5[2:1],18,7h[4:1],,,,
{8}8-4[8:1],5^2[8:1],8,5,8,18,
{8}2h[4:1],,8,{16}3,4,{8}3<1[2:1],12,3h[4:1],,,,
{8}5-1[8:1],1V35[4:1],5,8,7,6,
{8}5h[4:1],,1,{16}2,4,{8}3p1[2:1],18,7h[4:1],,,,
{8}7-3[8:1],2-5[8:1],7,2,8,48,
{8}5h[4:1],,8,{16}7,5,{8}7pp4[2:1],18,2h[4:1],,,,
{8}2-6[8:1],7-4[8:1],2,7,1bw5[8:1],,A1,,
{12}3,3,3,5,5,5,{16}8w4[8:1],,17,,,,,,
{12}6,6,6,4,4,4,{16}1,28,,,
{16}3,7,3,7,3,6,3,8,3,5,3,1,3,4,3,5,
{16}4,6,5,7,2,4,3,5,4,6,5,7,2^3-5[8:1]*pp4[8:1],,,,2b,,,,
{12}8,8,8,37,37,37,5-1[8:1],5h[12:5],,,,,
{12}4,4,4,45,45,3h[6:1],6bh[12:1],,,
{16}2,1,2,1,4,5,4,5,8,7,1,6,8,7,1,6,4,5,2,1,2,4,3,4,
{16}1,8,3,6,1w5[12:1]b,8,3z7[8:15],,{4}1,,,,,,,,
E
