&title=STEP by STEP UP↑↑↑↑
&artist=Fourfolium/TVアニメ「NEW GAME!!」OPテーマ
&first=0.81
&des=Ragna
&wholebpm=175
&demo_seek=57.3
&demo_len=10.2
&des_5=Ragna
&lv_5=13
&inote_5=(175){8}
4^1[8:5],,,,,,,4>5[8:7],
,,,,,,,,
4^1[8:5],,,,,,,4-8[8:5],
,,,1h[8:5],,,,,
7^2[8:5],,,,,,,3-8[2:1],
,,,5h[8:5],,,,,
7p4[4:3],,,,,,,,
5^8[8:5],,,,,,,5bw1[4:5]*w1[4:5],
,,,,,,,,
,,,,,,3b/7b,,
6h[4:1]/4,,5h[4:1],,7-4[8:1],,3,3h[4:1],
,5pp4[16:5],6,7h[8:3],,,,,
3-6[8:1]/6,,7,7h[4:1],,5h[4:1],,6h[4:1],
,4qq5[16:5],3,2h[8:3],,,,,
6h[4:1]/3,,2h[4:1],,4-8[8:1],,3h[4:1],,
7-4[8:1],2q5[16:5],7,2,,,,{16}7,6,{8}
45,3,6,45,2,7,45,,
1b/7b,1b/7b,1b/7b,,2,6,3,5,
4bqq5[1:1],,6,,6,,6,,
6,,6,,6,4h,5h,3h,
4h[4:1],,2^4[8:1],,6,6h[4:1],,5h[4:1],
,4h[4:1],,3h[4:1],,6pp3[16:5],,,
,,2h[4:1],,4h[4:1],,5h[4:1],,
6,5,4,3h[4:1],,4,5<4[16:11],6,
7h[4:3],,,,,,,,
6-8[8:1]/5-2[8:1],,65,,3-1[8:1]/4-7[8:1],,34,,
2b/6b,,3,4,6,7h[4:1],,5h[4:1],
,4h[4:1],,2h[4:1],,6pp1[32:15],,3h[8:5],
,,,,,4qq8[32:15],8,4,
,,,5w1[8:1],,,,,
3b/7b,,7-3[8:1],,2,2h[4:1],,4h[4:1],
,5h[4:1],,8>4[4:1],,4<4[2:1],,8b>7[16:7]*q7[16:7],
,,,,,,,1h[4:1],
,5h,2h/6h,7h/3h,8-4[8:1]/4h[4:1],,,,
5-7[8:1]/3,,8b,,3-1[8:1]/5,,8b,,
5-7[8:1]/3,,8b,,3-1[8:1]/5,8b,8b,,
4-2[8:1]/6,,1b,,6-8[8:1]/4,,1b,,
4-2[8:1]/6,,1b,,6-8[8:1]/4,1b,1b,,
4qq3[8:1]*pp5[8:1],,4>8[16:3]*<8[16:3],,,,,,
5pp6[8:1]*qq4[8:1],,5>1[16:3]*<1[16:3],,,,,,
4q8[8:1]*p8[8:1],,4,,3-8[8:1],7p4[16:5],3,7,
,,1b,,5pp7[8:1]/4qq2[8:1],,5b/4b,,
1s5[8:1]*s5[8:1]/8,,18,,1s5[8:1]/8,{16},18,{8},6p4[4:1],
,4>5[16:5],3,2h[8:3],,,,,
1s5[8:1]*s5[8:1]/8,,18,,1s5[8:1]/8,{16},18,{8},6pp4[4:1],
,4>5[16:5],3,2h[8:3],,,,,
18,,5pp6[8:1]*qq4[8:1],,5p1[8:1]*q1[8:1],,,,
2pp4[8:1],8>7[4:1],2,8,,,,18,
,{16}6,5,7,,3,4,{8}2-5[8:1],1p6[16:5],2,1,
,,1b,,4qq2[8:1]/5pp7[8:1],,4b/5b,,
1s5[8:1]*s5[8:1]/8,,18,,1s5[8:1]/8,{16},18,{8},6p4[4:1],
,4>5[16:5],3,2h[8:3],,,,,
1s5[8:1]*s5[8:1]/8,,18,,1s5[8:1]/8,{16},18,{8},6pp4[4:1],
,4>5[16:5],3,2h[4:1],,,1>8[16:5],2,
3h[4:1],,,4qq5[4:1],4,,,8qq1[4:1],
,1>8[16:5],2,3h[8:3],,,,,
34,25,16,78,6,45,3,12,
,37,7/3p6[4:1],,6q4[4:1],,4>5[16:7],,
5b,,,,,,6-8[8:1],,
3-8[8:1],,,,4-8[8:1],,,4bw8[16:11]*w8[16:11],
,,,,,,,,
,1h/7h,2h/6h,3h/5h,4-8[8:1],,,,{1}
1b>7[4:7]/7b<1[4:7],
,
,
E
