&title=Möbius
&artist=USAO & Camellia
&first=0
&lv_6=15+
&des_6=Synaptic Hyper-Integrated Transmitter
&inote_6=
(230){4},,,,{32}1/8,
2/7,3/6h[16:31],4,{8}5<3[8:9],{1},{4},,{16},,{24}D2,
D3,D4,
{1}D5,
5/3,
{8}3,4,5,6,4,5,6,3h[8:9],
{4},,,{16},,{32}E7,B7,C,B3,
{1}E3,
{24},,,3,,5,,4,,8,,6,,7,,1,,3,,2,,{8}4,
5/3,6/2,{16}7,8,{8}7,5/1,{16}3,4,{8}3,6/2,
{16}8,1,{8}8,3/7,{16}4,5,{8}4,6bh[4:1]/3bh[4:1],,,{4}4/6-1[8:1],
5,4/3-7[8:1],5,
4/8<5[8:1],1,{8}2,{16}3,7,{8}4,8/5,
{4}1h[8:1]/6-2[8:1],1h[8:1],7h[8:1]/4-8[8:1],7h[8:1],
{8}6,6,{16}1/6h[8:1],2,3,4,{4}5/8bh[8:1],4/1bh[8:1],
{16}2,4,2,4,{8}2,5,{16}6,4,6,4,{8}6,3,
{16}1,8,1,8,{8}1,7,{16}6,4,6,4,{8}6,3,
2/4,2/4,{16}3,5,{8}1,8/7,8/7,7/6,7/6,
{2}8/5-2[8:1],8z4[8:1],
{4}3h[8:1]/7h[8:1],2h[8:1]/6h[8:1],{2}1q6[8:1]/5q2[8:1],
{4}5h[8:1]/1h[8:1],8h[8:1]/4h[8:1],7h[8:1]/3h[8:1],{8}2/6,{16}2,6,
{8}4,5,6/2,7,{32}1/8,2,3,4,5,6,7,8,1,2,3,4,5,6,7,8,
{2}1bh[4:1]/5-1[8:1],{4}2-6b[8:1],2,
{2}7bh[4:1],{8}3<6[8:1],3,{4}8-4[8:1],
{8}1-5[8:1],1,{4}6w2[8:1],6,8b/4b,
{8}3/7,7/3,{4}3/7,{8}6/2-4[8:1],3,{4}2/6,
{8}7/1-5[8:1],2,{4}1/5,{8}8/7,{16}5,4,{8}6,6,
5/3,3/5,{4}3/5,{8}6/2-6[8:1],1,{4}2/6,
{8}8/7,7/8,{24}1,2,3,6,5,4,{4}3-7[8:1]/8-3[8:1],8b,
{8}6/4,6/4,{4}6/4,{8}3/7-5[8:1],6,{4}7/3,
{8}2/8-4[8:1],7,{4}8/4,{8}1/2,{16}4,5,{8}3,3,
6/4,6/4,8/7,8/7,1/2,1/2,3/5,3/5,
{4}C,B7/B6,A2/E3/B2,A7/D7/A6/E7,
{12}1,2,3,4/5,6,7,2,3,4,B6/A6/D6,,,8,
7,6,5/4,3,2,7,6,5,A3/D4/B3,,,7,
6,5,8,7,6,1,8,7,2,1,8,
{4}7-3[8:1]/3-5[8:1],7,1-5[8:1],1,
{8}6/4,6/4,{4}4/6,{8}7-4[8:1],8,7/2-6[8:1],3,
{4}2-8[8:1]/7-5[8:1],2/7,{8}3/4,{16}3,4,{8}2,2,
1/5,5/1,2/6,2/6,3/7,7/3,8b/4bq7[2:1],4b/8b,
,,,,,,,,{1}6h[4:3]/3>3[1:1],
3-1-7-5-3[1:1],
3>2<1<8<7<6>5>4>3[1:1],
3-1-7-5-3b[4:3],
{8}7bh[4:1],,,7bh[4:1]/3bpp1[8:5],,,,,{1}1-6V42[2:1],
{16}1,8,1,8,2,7,2,7,1,8,2,7,1,8,2,7,
1,8,1,8,2,8,1,8,1-5[8:1],8,2,8,{4}1b,
6/4,{8}4/6,6,{4}6/4,3/6,
{8}6/2,6,6/1,6,6/8,6,6/7,6,
{4}3/5,{8}5/3,3,{4}3/5,6/3,
{8}3/7,3,3/8,3,3/1,3,3/2,3,
4/5,6,7/3,8,2/1,3,4/5,6,
1/8,7,6/2,5,3/4,2,1/8,{16}7,6,
{8}5/1,1,{16}1/5,2/6,3/7,4/8,{8}5/1,1,{16}5/1,4/8,3/7,2/6,
{32}1/5,8,7,6,5,4,3,2,1,8,7,6,5,4,3,2,{4}1-5[8:1],7b,
{8}6/4,{16}3,5,{8}2,1,8/7-3[8:1],6,7,1,
5/4,{16}6,5,{8}7,8,1/2-6[8:1],3,2,{16}8,8,
{8}5,5,4/8,4/8,{24}3,2,1,8,7,6,3,2,1,8,7,6,
{2}3-7[8:1],{4}8-4b[8:1],8,
{8}2/5,{16}3,4,{8}2,5/6,7-3[8:1],8,7/2-5[8:1],1,
{4}2-8[8:1],2/6,{8}5/4,5/4,6b/3b,2b/7b,
{4}1b/8b-3b[8:1],8b/6b-1b[8:1],6b/4b-7b[8:1],4b/3b,
{8}2,2,{16}3,4,{8}3,5,6/4,7/3,3/7,
1/8,{16}3,4,{8}2,7/6,5/8-3[8:1],1,8/5-1b[8:1],6,
{4}5b-7b[8:1],2b/5b-3b[8:1],{8}8b,6,2,{16}8,1,
{8}2/7b,4b/6b,2b/3b,8b/1b,{4}7b-4b[8:1]/2b-5b[8:1],2b/7b,
{8}8/1,{16}6,5,{8}7,6,{2}4-8[8:1]/3-7[8:1],
{8}2/6,{16}5,4,{8}6,3/5,2-5[8:1],1,2/7-1[8:1],6,
{4}7-3[8:1],7/3,{8}2/6,{16}5,4,{8}6,7b/3b,
{4}3b/7b-3b[8:1],7b/5b-2b[8:1],{8}5b/8b,8b,{16}8,7,6,5,
{8}4/1,3/2,{16}5,4,{8}6,{16}1,2,3,4,{24}7,6,5,4,3,2,
{8}1/5,{16}3,4,{8}2,6/5,7-3[8:1],8,7/3,4,
{4}6bh[8:1]/5bh[8:1],7bh[8:1]/8bh[8:1],{16}5,6,4,5,3,4,2,3,
{4}1b-5[8:1],{8}1/8,7b<4[8:1],,7/8,{4}1,
{24}1,2,3,4,5,6,8,1,2,3,4,5,7,8,1,2,3,4,{4}Cfh[4:1]/5-1[8:1],
,,,,,,,,,,,,,,,,3,
4,5,6,
{8}3h[2:1],{16},,,,B6,B5,{8}E5,{16},,,,E3,B2,
{8}B1,{16},,,,6,5,4,,,3,,,{8}2,
6,5,3,2,,,{4}6,
3/5-7[8:1],4,3/8-4[8:1],2,
5/1h[4:1],{8}7,{16}2,3,{4}4/8,{8}6,{16}1,2,
{4}3/7,{8}5,{16}2,3,4/8,,,7,{8}3,6/2,
{16}1,8,7,6,2,1,8,7,3,2,1,8,4,3,2,1,
{8}5bh[8:1]/8bh[8:1],,,7bh[8:1]/6bh[8:1],,,{4}2bh[8:1]/3bh[8:1],
{8},1bqq2b[8:3]/4bpp3b[8:3],,,,,,,7bh[4:1]/6bh[4:1],
,,8bh[4:1]/5bh[4:1],,,{4}4bh[4:1]/1bh[4:1],
{8},2bh[4:1]/3bh[4:1],,,{2}8b-4b[8:1]/1b-5b[8:1],
{16}2,6,2,6,2,6,2,6,4,6,2,6,2,6,2,6,
3,7,3,7,3,7,3,7,5,7,3,7,3,7,3,7,
4,8,5,1,4,8,5,1,{24}4,3,2,8,7,6,3,2,1,7,6,5,
{2}3-7[8:1],{4}8-4b[8:1],8,
{16}1-5[8:1],,,4,{8}1,6,7/3,{16}8,1,2,3,4,5,
1-5[8:1],,,6,{8}1,7,4b/8b,8b/4b,4b/8b,{16}3/7,2/6,
5/1-6[8:1],,,4,{8}1>4[8:1],5,1,7,8/5,3,
1/2,3/4,5/6,7/8,{16}1,2,3,4,{24}2,3,4,5,6,7,
{16}8-4[8:1],,,5,{8}8,3,2/6,{16}1,8,7,6,5,4,
8-4[8:1],,,3,{8}8,2,1b/5b,1b/5b,1b/5b,{16}2/6,3/7,
4/8-4[8:1],,,5,{8}8,3,{16}7-3[8:1],,,2,{8}7,1,
{16}2b,3,4,5,7b,8,1,2,4b,5,6,7,{8}4bh[16:1],4bh[16:1],
{16}2-6[8:1],,,5,{8}2,7,4/8,{16}1,2,3,4,5,6,
3-8[16:1],,,7b,,,6,5,4/7b,,,2b/5b,,,{8}3/7,
8<5[8:1],{16}1,2,{8}3/8-4[8:1],4-6[8:1],8,3,2,1,
{16}8bh[8:1]/7bh[8:1],,,6bh[8:1]/4bh[8:1],,,{8}2b/3b,{24}7,8,7,8,,,4,6,4,6,,,{8}5/2-4[8:1],
{16}1,6,{8}2,7-1[8:1],{16}6,5,{8}7,3-7b[8:1],{16}4,5,
{8}3,6pp1b[2:1],,,{4}2b-5b[8:1],A2f,
{8}7-5[8:1],{16}8,4,{8}7,2-8[8:1],{16}3,4,{8}2,6-2b[8:1],{16}5,4,
{8}6,3-8b[8:1],{16}4,5,{8}3,{2}7bh[4:1],
{16}2,1,{8}2,3/8,{24}7,6,5,{8}4,3/6,1,1,
{16}7,8,{8}7,6/1,{24}2,3,4,{8}5,6/3,8-4b[8:1],4,
{1}2bh[4:3]/C,
{4}7-3b[8:1],7,1w5b[8:1],1b,
{8}3b/7b,3b/7b,3b/7b,7b/3b,1b/5b,1b/5b,5b/1b,{16}3b,4b,
{8}2b,5b/6b,8b/7b,8b/7b,{32}1b,2,3,4,{8}5,{32}8b,7,6,5,{8}4,
{16}2b,1b,{8}2b,3b/4b,{16}6b,5b,7b,5b,{8}6b,4b/3b,2b,
6h[8:1],5h[8:1],4-7-1-6b[8:3],3h[8:1],4,2,{4}2b,
{16}1,5,1,5,8,4,8,4,7,3,8,4,1,5,{24}2,3,4,
{16}7,8,6,1,5,4,6,3,{32}7b,8,1,2,3b,4,5,6,{4}Cf,
{8}7<4[8:1],7,{24}3,2,1,8,,,{8}2>5[8:1],2,{24}6,7,8,1,,,{8}2<7[8:1],
2,{24}6,5,4,3,,,{8}2-6[8:1],2,{4}5b,
{8}7<4[8:1],7,{24}8,1,2,3,,,{8}2>5[8:1],2,{24}1,8,7,6,,,{8}8,
8,{24}1/8,2/7,3/6,4,,,{8}1,1,{24}8/1,7/2,6/3,5,{96},,,,,,,,{32}2b,
3,4,5,1,2,3,4,5,6,7,8,5b,6,7,8,4,5,6,7,8,1,2,3,8b,7,6,5,1,8,7,6,
5,4,3,2,1/5b,8/4,7/3,6/2,5/1,4,3,2,1,8,7,6,1b/5,2,3,4,5,6,7/4b,8/5,6,7,8/1,2,3/7b,4/8,5/1,6/2,
{384}7-4[8:1],3-8b[384:47],{16},,,{64},,,{96},{4}Cf/3bp1[1:1]/7bp5[1:1],{8},,,,,,,,,,,,A6,
E6,{12}B5,,B4,,E4,,A3,,E7,
,C,,{4}E3,{2}B8/B7,
{4},A2/D2,{8},D6/A6,,,{1}C,
{4}E8,C,{8},D4,,,{1}6h[4:15]/2h[4:15],
E
