&title=Wifi Tears
&artist=Slippy/Mihka!
&first=0.06
&des=Dororo
&lv_5=13+
&inote_5=(152)
{16}
,,,,,,,,,,,,,,,,
,,,,,,,,,,,,,,,,
4w8[2:3],,,,,,,,,,,,,,,,
,,,,,,,,,,,,,,,,
2,,2h[8:13],,4,,,,4,,,,4,,,,
4,,,,4,,,,4pp4[4:1],,,,4,,,,
2,,2h[8:7],,4,,,,4,,,,4,,,,
4,,,,4,,4h[4:1],,,,2h[4:1],,8b,,8b,,
7,,7h[8:13],,5,,,,5,,,,5,,,,
5,,,,5,,,,5qq5[4:1],,,,5,,,,
7,,7h[8:7],,5,,,,5,,,,5,,,,
5-3[8:1],,,,7-1[8:1],,,,2-6[8:1],,,,8b,,,,
5-8[4:1]/7,,,,,,,,5h[4:1],,,,7,,7^4[8:1],,
,,{24}3,2,1,{16}8,,,,2h[4:1]/6h[8:3],,,,,,5,,
5-8[4:1]/7,,,,,,,,5h[4:1],,,,1,,1^4[8:1],,
,,{24}5,6,7,{16}8-5[8:1],,5,,8-3[8:1],,3,,8,,4,,
4-1[4:1]/2,,,,,,,,4h[4:1],,,,2,,2^5[8:1],,
,,{24}6,7,8,{16}1,,,,7h[4:1]/3h[8:3],,,,,,4,,
4-6[8:1]/2-8[8:1],,,,2v1[8:1]/4v5[8:1],,,,2<3[4:1],,,,2b,,,,
,,{24}1,8,7,{16}6-4[8:1],,3,,6-8[8:1],,1,,6,,2,,
7h[2:1]/2q5[1:1],,,,,,,,,,,,,,,,
,,8,,8-4[8:1],,,,1,,,,5,4,6,3,
2h[2:1]/7p4[1:1],,,,,,,,,,,,,,,,
,,1,,1^4[4:1],,,,{12}5,6,7,{16}8b,,,,
3h[8:7]/4,,4,,6,,6,,8,,8,,1,,{24}1,8,7,
{16}6h[8:7]/5,,5,,3,,3,,1,,1,,8,,{24}8,1,2,
{16}3,5,3,5,2,1,2,2,7,1,7,1,6,5,6,6,
,,,,,,,,1b/8b,,2,2,6,6,4,4,
5b<2[2:1],,,,3,,3,,2qq5[2:1],,3,,3,,3,,
5<2[2:1],,4h[16:1],,4h[16:1],,4,,2-6[8:1],,4,,4,,4,,
4bqq7[2:1],,,,6,,6,,7>4[2:1],,6,,6,,6,,
4qq7[2:1],,5h[16:1],,5h[16:1],,5,,8h[16:1],,8h[16:1],,6h[16:1],,6h[16:1],,
6bV85[4:1],,,,5-1[8:1],,1-4[8:1],,4V26[4:1],,,,,,1,,
1,,7,8,6,1,5,2,{32}4-8[8:1],3,2,1,8,7,6,5,4b/2b,,,,,,,,
{16}2-5[8:1]/6-1[8:1],,,,26,,,,4h[8:1]/8h[8:1],,,3h[8:1]/7h[8:1],,,26,,
2-7[8:1]/6,,1,,6-3[8:1],,5,,1h[4:1],,,,{24}3,2,1,8,7,6,
{16}4b>7[2:1]/5,,,,6,,6,,7pp4[2:1],,6,,6,,6,,
4>7[2:1],,5h[16:1],,5h[16:1],,5,,7-3[8:1],,5,,5,,5,,
5bpp2[2:1],,,,3,,3,,2<5[2:1],,3,,3,,3,,
5pp2[2:1],,4h[16:1],,4h[16:1],,4,,1h[16:1],,1h[16:1],,3h[16:1],,3h[16:1],,
3bV14[4:1],,,,4-8[8:1],,8-5[8:1],,5V73[4:1],,,,,,8,,
8,,2,1,3,8,4,7,{32}5-1[8:1],6,7,8,1,2,3,4,5b/7b,,,,,,,,
{16}7v4[8:1]/3v8[8:1],,,,73,,,,5h[8:1]/1h[8:1],,,6h[8:1]/2h[8:1],,,7/3s7[8:5],,
,,,,,,,,,,,,8,,8,,
8-5[8:1]/5V38[4:1],,,,8V26[4:1],,,,6,,,,5,,5<2[4:1],,
,,3,,3^8[8:1],,,,8,,,,7,5,6,4,
3v5[8:1]/7s3[4:1],,,,3V15[4:1],,,,5,,,,4,,4^2[8:1],,
,,7,6,5pp5[4:1],,,,1,,1h[4:1],,,,,,
1-4[8:1]/4V61[4:1],,,,1V73[4:1],,,,3,,,,4,,4>7[4:1],,
,,6,,6^1[8:1],,,,1,,,,2,4,3,5,
6v4[8:1]/2z6[4:1],,,,6V84[4:1],,,,4,,,,5,,5^7[8:1],,
,,2,3,4q4[4:1],,,,8,,8h[4:1],,,,,,
4>3[16:1]*>2[16:2]*>1[16:3]*>8[16:4]*>7[16:5]*>6[16:6]*>5[16:7]/8,,,,,,,,4b,,,,8,8,1^4[8:1],,
,,{24}5,6,7,{16}8w4[8:1],,,,8,,,,2,6,3,7,
4-8[8:1]/8V64[4:1],,,,4V27[4:1],,,,7,,,,1,,1^4[8:1],,
,,{24}8,7,6,{16}5,,,,65,,,45,,,34,,
2V84[4:1]/4-6[8:1],,,,4V25[4:1],,,,5,,,,7,,7^4[8:1],,
,,{24}3,2,1,{16}8v3[8:1]*v5[8:1],,,,8,,,,7,3,6,2,
5-1[8:1]/1V35[4:1],,,,5V72[4:1],,,,2,,,,8,,8z4[8:5],,
,,,,,,,,,,,,1b,,,,
2qq7[1:1],,2,,4h[8:1],,,,4,,,,4,,,,
4h[8:1],,,,4,,,,4,,,,4,3,5,4,
6pp1[1:1],,6,,4h[8:1],,,,4,,,,4,,,,
4h[8:1],,,,4,,,,{12}3,4,5,4,5,6,
{16}
7pp2[1:1],,7,,5h[8:1],,,,5,,,,5,,,,
5h[8:1],,,,5,,,,5,,,,5,6,4,5,
3qq8[1:1],,3,,5h[8:1],,,,5,,,,5,,,,
5h[8:1],,,,5,,,,{12}7,8,6,2,1,3,
{16}
4qq5[1:1]/8h[2:1],,,,,,,,,,,,,,,,
,,7,,7-2[8:1],,,,5,,,,3,4,3,4,
5pp4[1:1]/1h[2:1],,,,,,,,,,,,,,,,
,,3,,3^8[4:1],,,,{12}7,6,5,{16}4b,,,,
2h[8:1]/1,,1,,2h[8:1]/7,,7,,2h[8:1]/5,,5,,2h[8:1]/3,,{32}3,4,5,6,
{16}
7h[8:1]/8,,8,,7h[8:1]/2,,2,,7h[8:1]/4,,4,,7h[8:1]/6,,{32}6,5,4,3,
{16}
2,8,2,8,3,4,3,3,6,4,6,4,7,8,7,7h[16:9],
,,,,,,,,8b,8,8,8,{32}1,2,3,4,8,7,6,5,
{16}
3-8[8:1]/4,,12,,8,,7,,7-4[8:1],,56,,4,,3,,
2,,2,3,2-4[8:1],3,2,,2-6[8:1],,1-5[8:1],,2,,1,,
4-1[8:1],,56,,4,,7,,7-4[8:1],,18,,7,,2,2,
3,,2v5[8:1],1,2,1,2,,7,8,6,1,7,8,6,1,
7V16[4:1],,18,,2,,3,,3V52[4:1],,45,,6,,7,,
8,,8,1,8,2,8,1,{32}8-4[8:1],7,6,5,8,1,2,3,8b,,,,,,,,
{16}
{16}7-4[8:1]/3-8[8:1],,,,73,,,,5h[8:1]/1h[8:1],,,6h[8:1]/2h[8:1],,,73,,
7-2[8:1]/3,,8,,3-6[8:1],,4,,8h[4:1],,,,{24}6,7,8,1,2,3,
{16}
6b-1[8:1]/4,,87,,1,,2,,2b-5[8:1],,43,,5,,6,,
7b,,7,6,7-5[8:1],6,7,,7b-3[8:1],,8-4[8:1],,7,,8,,
5b-8[8:1],,43,,5,,2,,2b-5[8:1],,81,,2,,7,7,
6b,,7v4[8:1],8,7,8,7,,2b,1,3,8,2,1,3,8,
2bV83[4:1],,81,,7,,6,,6bV47[4:1],,54,,3,,2,,
1b,,1,8,1,7,1,8,{32}1b-5[8:1],2,3,4,1,8,7,6,1b,,,,,,,,
{16}7bv4[8:1]/3bv8[8:1],,,,73,,,,1b/5b,,6,6,2qq2[1:2],2,4pp4[8:15],4,
,,,,,,,,,,,,,,,,
,,,,,,,,,,,,,,,,
,,,,,,,,,,,,,,,,
,,,,,,,,,,,,,,,,
,,,,,,,,,,,,,,,,
,,,,,,,,,,,,,,,,
E
