&title=芽吹くとき
&artist=yonige
&first=0.055
&lv_5=13+
&des_5=yozora
&inote_5=
(150){4},,,,1/8<4<8[4:5],
E5,{8}2,1,{4}2,
E1,{8}3,4,{4}3,{8}3,2,
{4}8/1>5>1[4:5],E5,{8}7,8,{4}7,
E1,{8}6,5,{4}6,{8}6,5,
{4}4h[4:1],6,5h[4:1],3,
2h[4:1],8,7h[4:1],{8}2,2,
{4}3h[4:1],E5,6h[4:1],C,
2h[4:1],E1,{8}3,5,4,6,
{4}E4h[4:1],1,E6h[4:1],8,
B4h[4:1]/E5h[4:1],1,B5h[4:1]/B6h[4:1],{8}8,8,
{4}1>4[4:1],5,6-1[4:1],2,
{8}3,3,{4}4h[4:1],{8}B2,{16}7,8,{8}8,1/6,
{4}1-5[8:1],1/8,{8}B6,{16}3,4,{8}4,5/2,
{4}5<1[4:1],1<5b[4:1],2,3,
4/5,7/6,{8}1/8,{16}6,6,{8}5,7/4,
{4}7pp1[4:1],1<5[4:1],5>1[4:1],1p4[4:1],
{16}C,,,3,{4}3h[4:1],{8}5,{16}4,6,{8}5,7,
{4}8/1q5[8:1],1,{8}B7,{16}3,4,{8}3,5/2,
{4}2h[4:1],{8}8-4[8:1],7,{4}8b,{8}8-4[8:1],7,
{4}8b,{8}8-4[8:1],7,{4}8b,7/8-4[8:1],
8b/2-6[8:1],2b/5-1[8:1],5b/3-7[8:1],2/3b,
{8}B1,{16}6,5,{8}6,4/7,{4}4h[8:1]/7h[4:1],4w8[8:1],
4b/Cf,{16}2/1,,,6,{8}6h[8:1],4,5h[8:1],3,
3h[8:1],4,7/8,{16}5,4,{4}5<8[8:1],5/1-3<4[8:1],
1/6qq4[8:1],{16}6,,,8,{8}8,1,2,3,
{4}3h[4:1],{8}5,{16}1,8,{4}1>4[8:1],1/8-6>5[8:1],
8/3pp5[8:1],{16}3,,,1,{8}1,8,7,6h[8:3],
,,4,{16}2,1,{4}2q6[8:1],2/1<6[8:1],
1/4qq2[8:1],{16}7,,,6,{4}6h[4:1],{8}4,6/4h[4:1],
,7,7,{24}5,4,3,2,1,8,7,{48},,,,{16}3>8[8:1],4,3,4,
{4}3b,{16}6/5,,,4,{8}4h[8:1],6,5h[8:1],7<4[8:1],
,3,2,{16}1,8,{4}1>4[4:1],4<7[4:1],
7>2[4:1],{16}4,,,5,{8}5,6,7,8,
{4}8-3[8:1],5/8-5[8:1],3/8>3[8:1],5/8<5[8:1],
{24}8/4bx,3x,2x,1x,{48},,,,{16}B8h[4:1]/B7h[4:1]/E8h[4:1],,,4,{4}4h[4:1],{8}7,7<4[8:1],
,3,3,{16}2,1,{4}2h[4:1],8<5[4:1],
5q1[4:1],1p4b[4:1],4>1b[4:1],{8}1pp2[4:1]*qq8[4:1],1,
,,,,{4}6/4,{16}1,8,2,7,
{4}1>4[8:1],{8}8,7,{4}6v1[8:1],6/3>8[8:1],
{8}5,6,{4}7<4[8:1],7/2v5[8:1],{8}5,6,
{4}7qq5b[4:1],5<1[4:1],1q5b[4:1],5q1[4:1],
1<4b[8:3],B2/E3/B3,{2}Cfh[4:1],
{4}7h[4:1],{16}5h[4:1],,,4,{4}4h[4:1],2h[4:1],
8h[4:1],{16}1-5[8:1],,,6,{4}6,{16}2-4[8:1],,,7,
{4}7,{16}8>5[4:1],,,5,{8}5,6,7,8pp5[8:3],
,D5,D4,D3,D2,E8,B2/E3,E7/B6,
{4}B4h[8:7],6,7,{8}8,8qq2>5[8:5],
,,,,,,,,{4}E6h[8:7],
1,2,{8}3,3pp8>2b[8:5],
,,,,,,,,{4}B2h[8:7]/B1h[8:7],
5,6,{8}7,7qq5-8>4[8:5],
,,,,,,,,{4}B8h[8:7]/B7h[8:7],
4,3,{8}2,2pp8b[8:3],
,,,,,5,{4}5h[4:1],
1>5[4:1],5>1b[4:1],{8}6,7,{4}8q5[4:1],
5p8b[4:1],8q6[4:1],6,{8}4,3,
{4}2h[4:1],{16}8,,,6,{8}6,{16}3,5,{8}4,2,
{4}1/8<5[8:1],8/1>4[8:1],1/8<5[8:1],8/1,
{16}3,,,5,{4}5h[4:1],{16}B2,,,7,{4}7h[4:1],
B4,6/4,{8}3,{16}6,5,{8}5,4/7,
{4}7h[4:1],{8}1>4[8:1],8,{4}1b,{8}7<4[8:1],8,
{4}7b,{8}3>8[8:1],4,3b,6,6-1[8:1],5,
{4}6b/2-5[8:1],2b/7<4[4:1],{8}3,3,2,2,
1/8,1/8,7,5,6,4,{4}5h[4:1],
E2h[4:7]/B2h[4:7]/B1h[4:7],{8}A7,A6,{4}A5,{8}E7,E6,
{4}E5/B4,{8}7,6,5,4,5,6,
3/7h[8:1],3,4/8h[8:1],4,3/7h[8:1],3,4/8h[8:1],4,
6/2h[8:1],6,5/1h[8:1],5,6/2h[8:1],6,5/1h[8:1],5,
{4}E8h[4:7]/B8h[4:7]/B7h[4:7],{8}A2,A3,{4}A4,{8}E3,E4,
{4}E5/B5,{8}2,3,{4}4,{8}2,3,
4-8[8:1],4,7-3[8:1],7,1-5[8:1],1,8-4[8:1],8,
2-6[8:1],2,{16}7,,,8,{8}8,1/7,{16}2bx,6bx,3bx,5bx,
{8}4bx,4/5,{4}6xh[8:1]/1-5[8:1],6xh[8:1],6xh[8:1]/3-8[8:1],
6xh[8:1],6xh[8:1]/2>5[8:1],6xh[8:1],6xh[8:1]/4>1[4:1],
1x<6[4:1],6x>3[4:1],3x>8[4:1],8x<4[4:1],
4x>8[4:1],8xV64[4:1],4xV28[4:1],8b,
B6h[4:7]/E7h[4:7]/B7h[4:7],2-5[8:1],2,8-3[8:1],
8,5-2[8:1],5,1-4[4:1],
4-8[4:1],8-5[4:1],5,{8}7,7,
,4/3,{4}4/3,{8}6,6,{16}3,4,5,6,
{1}7qq1>4[4:3],
1h[1:1],
{4}5h[4:3],{8},,,,3,2b/6b,
,5,6/4,7b/3b,{16},,2,1,3,8,4,7,
{4}5h[4:1],{16}8-4[8:1],,,7,{8}8,6,5,4>1[8:1],
,5,6,{16}7,8,{8}6,5/1,{4}4/2-6[8:1],
2/4h[4:1],{16}1-5[8:1],,,2,{8}1,3,4,5,
{4}6h[4:1],{8}4,{16}2,1,{8}3,4/8,{4}5/7-3[8:1],
7b/5h[4:1],{16}1>4[8:1],,,8,{8}1,5,6,7h[4:1],
,8,6/1,{16}3,4,{8}2,5/1,{4}6/8<5[8:1],
8/4h[4:1],{16}8-3[8:1],,,7,{8}8,5,6,7h[4:1],
,1,{4}1h[4:1],{8}4,4,{24}E6/B5,E7,E8,E1,E2,E3,
{4}E4h[4:1],{16}8-4[8:1],,,7,{8}8,6,5,4>1[8:1],
,5,6,{16}7,8,{8}6,5/1,{4}4/2pp4[4:1],
4>8[4:1],{16}8<4b[4:1],,,4,{8}4,E1,E8,E7,
{4}E6h[1:1]/B5fh[1:1]/E5h[1:1]/1x-7[8:1],1x-3[8:1],1x-6[8:1],1x-4[8:1],
1bx,{16}8<5[8:1],,,1,{8}8,4,3,2>5[8:1],
,6,7,{16}8,1,{8}8,7/2,{4}6/3-8[8:1],
3/6-1[8:1],6/3>8[4:1],{8}7,6,5,4h[4:1],
,1,8,{16}3,4,{8}2,5/1,{16}8,6,8,6,
{8}8>3[8:1],7,6,5<8[8:1],{4}B1/B2,{8}2>5[8:1],1,
8,7>2[8:1],6,5,{4}4<7[8:1],{16}B8/B1,,,4,
{4}4h[4:1],{16}B8/B7,,,2,{4}2h[4:1],{8}7,6,
5/2,3,4/7,6,5/3,2x/6x,{4}1x/7xh[4:1],
{16}1,2,3,4,{4}5/1xh[4:1],{16}5,6,7,8,{4}1/5xh[4:1],
1xh[4:1],{16}3b<6[8:1],,,7,{4}7,{16}2bpp4[8:1],,,6,
{4}6,{16}1bp4[8:1],,,7,{4}7,{8}2,2h[4:1],
,6,6,3,3,{16}6,5,7,4,6,5,
6x/1bx,2x,3x,4x,5bx/1x>4[8:1],6x,7x,8x,{4}1bx/E3f,{16}5x,6x,7x,8x,
1bx/5x,2x,3x,4x,5bx/1x>4[8:1],6x,7x,8x,{4}1bx/E3f,E2h[4:1]/B1h[4:1]/B2h[4:1],
E6,B7h[4:1]/B8h[4:1]/E8h[4:1],E4,E5fh[1:1]/8x-6[8:1],
E4/8x-2[8:1],{8}8x<6[8:1],E6,8x>2[8:1],E4,{4}8bx,
3h[4:1],{16}4h[4:1],,,5,{4}5h[4:1],7h[4:1],
1>4[4:1],4p8[4:1],8q5b[4:1],B7h[4:1]/E7h[4:1],
{16},,4,5,3,6,4,5,4,5,3,6,4,5,{8}3/6h[4:1],
,1,8,{16}3,5,{8}5,4/6,1/8,3,
5h[4:1],4,{16}4-8[8:1],,,5,{8}4,7,6,5>2[8:1],
,1,8,{16}6,5,{8}7,4/8,3/1,2-5[8:1],
2,8-4[8:1],{16}8,,,1,{8}1,2,3,4<7[8:1],
,8,1,{16}3,4,{8}2h[8:1],8,1,{16}6,5,
{8}7h[8:1],1,{16}8,,,3,{8}3,6<1[8:1],4,6,
,3,4,{16}6,5,{8}7,8/1,{4}4/3h[4:1],
{8}6-1[8:1],6,2-5[8:1],2,7-4[8:1],7,3-8[8:1],3,
,7,6,5,4/3,2/1,8/7,6/5,
{4}5/6h[4:1],{16}1>4[8:1],,,8,{8}1,5,6,6<1[8:1],
,2,3,{16}5,5,{8}4,3/6,7,8/4,
3,2/6,7,3/8,4,5/7,6,4pp8[4:1]/5qq1[4:1],
{16},,,,,,,,3,4,3,4,{8}3h[8:1],{16}6,5,
{8}6h[8:1],4,4,2,1,8,7,6pp1[4:1],
,2,3,4,4,E5,E6,E7,
{16}B1h[4:1]/B8h[4:1]/E1fh[4:1],,,,,,,3,{8}3,5,4,{16}7,8,
{8}6h[8:1],4,5,{16}3,4,{8}2h[8:1],{16}6,5,{8}7h[8:1],C,
E
