&title=星空のいま
&artist=相良心
&first=0
&des=
&des_5=uapy
&lv_5=13
&inote_5=(185){4},,,,,,,,
{1}4>1[2:1],
5<8[2:1],
{32}2q4[1:1],{16},,,,,,,,,,,,,,,{32},
{4}B6/E7,,6,5,
{2}5h[4:4],{4}3,4,
4h[2:1],6,{4}5,3,
{8}5/3pp8[8:7],{4},{8},{2},
,{4}8,7,
6/5>1[8:3],6,6,6,
6/8>4[8:3],6,7,7,
8/5qq1[2:1],8,8,8,
1/8,2,3,4-1[8:1],
4/5,{8}6,6,2,2,8,8,
3,3,7,7,{4}1-5[8:1],1,
{8}6,6,4,4,7/3,7/3,8/2,8/2,
{1}1b-6-3-7[2:1]*-4-7-3[2:1],
{4}8/1>4[8:1],7,{8}6v1[8:1],6,{4}5,
2>5[8:1],8,7-4[8:1],3,
2v5[8:1],5,6-1[8:1],4,
3>8[8:1],7,5-8[8:1]*-1[8:1],5,
2>5[8:1],8,{8}6-1[8:1],6,{4}4,
3>8[4:1],8<5[4:1],5>2[4:1],2,
{8}8h[4:1],{4},{16}2,3,{4}4,7,
{8}5,5,6/4,6/4,7/3,{16}2,8,2-5[8:1],8,2,8,
{1},B7,
B3,
E6,
5-8-3-7-2[16:49],
B4/E5,
4-8-5-2b[8:8],
{8},,,,,,{4}1b,
7/2>5[8:3],7,7,7,
6/5v2[8:3],6,6,6,
3/8p4[8:3],3,3,3,
2/4pp8[8:5],2,2,2,
1pp4[8:5],8,7,{8}6,6,
{4}5<8[8:1],3,2-5[8:1],8,
7v4[8:1],{8}4,3,{4}2h[4:1],{8}5,6,
7,7,6/4,6/4,3,2,1,8,
{4}7<4[8:1],{8}8,1,{4}2>5[8:1],{8}5,6,
{4}7<3[4:1],3>7[4:1],{8}7,{4},{8}1,
{4}1>4[8:1],{8}7,6,{4}5<8[8:1],{8}4,3,
{4}2>6[4:1],6<2[4:1],{2}2,
{1}8b-4b[8:7],
{2},{4}6/5,3/4,
2h[2:1],{8}1,1,8,8,{8}7/1-5[8:1],7/1,
{2},{4}B4,E3,
1b/8b<6[8:1],{8}1,2,{4}2/1<7[8:1],{8}2,3,
{4}3/1<6[8:1],{8}3,3,4,4,5/3,5/3,
{4}6<2[4:1],{8}2<6[4:1],3,{4}4,3pp8[2:1],
7,7,7-5[8:1],7-3[8:1],
7,1-4[8:1]*>4[8:1],1-6[8:1]*<6[8:1],1w5[8:1]*w5[8:1],
1,{8}7,7,{4}8<5[16:3],4,
2p8[8:3],{8}5,6,{2}7-4[8:1]*-3[8:1],
{8}2,1,{4}1h[4:1],4,3/5,
4b/3b>1[8:1],{8}4,5,{4}5/4>2[8:1],{8}5,6,
{4}6/5>2[8:1],{8}6,7,8,8,1/7,1/7,
{4}6/2>6[4:1],{8}6>2[4:1],7,7,{4},{8}8,
{4}8-4[8:1],{8}1,1>4[8:1],,1bp7[8:3],,1b,
{4},{8}3,3,4,4,6,6,
2,2,8,8,{4}1-5[8:1],1,
{8}6,6,3,3,7/2,7/2,1/8,1/8,
{1}1b-3-5-7-1[2:1]/8b-6-4-2-8b[2:1],
{4}7<4[8:1],8,{8}1>4[8:1],1,{4}5,
6<1[8:1],5,4>1[8:1],1,
8<5[8:1],1,3>8[8:1],4,
5p4[16:5],1,1>4[8:1],5,
6-1[8:1],4,{8}3-8[8:1],3,{4}8,
7-4[8:1],7/2>5[8:1],2/8-4[8:1],8,
{8}3h[2:1],{4},{16}5,6,{4}7,2,
{8}3,3,6,6,2/7,7/2,8/1,8/1,
{24}2,3,4,5,{12},{4}8b<1[2:7],
E
