&title=放課後ボーダーライン
&artist=花譜/神聖かまってちゃん
&first=0.01
&des=nazuna
&lv_5=14
&inote_5=(199.04){4},{8},,1/7,7/1-5[8:1],,1,
,3/7-3[8:1],,7,1,1,1,1,
1/5,1/5,6/1-5[8:1],6/1,{4}1b/7-1[8:1],7,
{8}3-5[8:1],3,{4}6,{8}7-2[8:1],7,{4}4-2[8:1],
4-7[8:1],4V26[4:1],{8}5,5,{4}5,
8-3[8:1],5,{8}8-4[8:1],6,{4}6,
7V53[4:1],3V58[4:1],{8}2,2,{4}2,
{8}1-5[8:1],2,{4}3,{8}4-8[8:1],6,{4}4,
6V82[4:1],2V86[4:1],4-1[8:1],4-6[8:1],
4-2[8:1],4-8[8:1],4w8[8:1],4,
{8}6/2,{16}3,5,3,5,3,5,{4}3h[4:1],7,
{8}5h[4:1],3,{4}3,4h[4:1],6,
{8}7h[4:1],3,{4}3,{8}6/4,6-3[8:1]/4-7[8:1],,,,,8,
8-4[8:1],,2,,2pp5[2:1],
,7,,7,{2}7-4[8:1],
{4}3h[4:1],5,{8}6h[4:1],4,{4}4,
3h[4:1],5,{8}6/2,6v1[8:1]/2v5[8:1],,,,,8/2,
8/2-5[8:1],,2/7-3[8:1],,7/1-5[8:1],
,6,{4}7,3-1[8:1],7,
{8}5-7[8:1],3,{4}3,4-2[8:1],6,
{8}7-5[8:1],3,{4}3,{8}2,2-6[8:1],,2,
,,8,8-4[8:1],,2,,2qq5[2:1],
,6,,6,{4}6-2[8:1],6,
4-8[8:1],{8}7,6,5,4-7[8:1]/2-7[8:1],,4/2,
,B2/B4,,B3/B5,6/2,3/7-3[8:1],,7,
,4/2,5/1,8-2[8:1]/6-8[8:1],,8/6,,7-4[8:1]/3-8[8:1],
,3/7,,5bpp8[2:1]/1bpp4[2:1],{2}5/1,
{4},7V14[4:1],{2}4V62[4:1],
{4}3-7[8:1],3/7,8w4[8:1],8,
1w5[8:1],1,7>3[4:1],3V16[4:1],
6V82[4:1],2w6[8:1],A2f,8-4[8:1],
8/2-6[8:1],2/7-4[8:1],7/3-1[8:1],3-7[8:1],
3-5[8:1],3,8/B4/B3/E4f,7/B2/B3/E3f,
6/B2/B1/E2f,5/B8/B1/E1f,{16}3,4,3,4,3,4,3,4,
{4}3w7[8:1],3b,{8}5v2[8:1],3,{4}3,
{8}6<1[8:1],4,{4}4,5>1[4:1],1<5[4:1],
5,1,{8}8v3[8:1],2,{4}2,
{8}7<4[8:1],1,{4}1,6w2[8:1],6,
4/8-4[8:1],{8}8,2,2,5-1[8:1],,5,
,7,{4}7-3[8:1],{8}7/1,1-3[8:1],,5/1-5[8:1],
,7/1,7,7,7,7-5[8:1]/3-1[8:1],,7v4[8:1]/3v8[8:1],
,7/3,,1>4[8:1],8,7,6<1[8:1],5,
{4}4-7[8:1]*-1[8:1],4,{8}2V46[4:1],1,{4}8,
{8}8V63[4:1],1,{4}2,2w6[8:1],2,
8-4[8:1],8/4,{8}3V17[4:1],4,{4}5,
{8}5V72[4:1],4,{4}3,3-8[8:1]*-6[8:1],3,
7w3[8:1],7,{2}1-5[8:1],
{4}2-4[8:1]/8-6[8:1],2/8,1-3[8:1]*-4[8:1],1-6[8:1]*-7[8:1],
1-3[8:1]*-4[8:1],1-6[8:1]*-7[8:1],1,4-2[8:1]*-6[8:1],
4w8[8:1],4b,6-1[8:1]/2-5[8:1],6/2,
{16}4,6,4,6,4,6,4,6,{2}4V26[4:1],
8-4[8:1],5-1[8:1]/2-4[8:1],
{4}8V64[4:1],4V28[4:1],{2}8-4[8:1],
{4}2-6[8:1],2/8-5[8:1]*-6[8:1],8-2[8:1]*-3[8:1],8-5[8:1]*-6[8:1],
8-3[8:1]*-2[8:1],8,{8}5,5-7[8:1]*-1[8:1],,5,
,8/2,8/2,8/2,7/3,3-1[8:1]/7-5[8:1],,7/3,
,8/4,1/5,6/2,{16}3,5,3,5,3,5,3,5,
3,5,3,5,3,5,3,5,{8}3b-7[8:1],3b,,6,
6,6/8,6/8,8/6,6/8>4[4:1],,,5,
{4}5-1[8:1],5,{8}2>6[4:1],2,,8,
{4}8-4[8:1],8,{8}5,5V38[4:1],,8V24[4:1],
,4-1[8:1],6,6,7,7,8,{16}8,2,
8,2,1,3,1,3,{8}1,1<5[4:1],,,4,
{4}4-8[8:1],4,{8}7<3[4:1],7,,1,
{4}1-5[8:1],1,{8}4,4-2[16:3],,4-7[8:1],
,4-1[8:1],,4,8,8,8,8,
{16}8,2,8,2,8,2,8,2,{8}8-4[8:1],2,{4}3-7[8:1],
3,{16}5,1,5,1,{8}5,5/1,{16},7/3,,7/3,
,,,5/1,,1/5,,7-3[8:1],,,,,,,{8}1,
2-6[8:1],,,8,{24}8,7,6,5,4,3,2,1,8,7,6,5,
{4}4-8[8:1],{8}3,2,{4}1-5[8:1],{8}7,7,
7/4,7,7/3,7,7/2,7,7/1,7,
{2}7-4[8:1]/8-3[8:1],{4}5b/2b,{16}3,5,3,5,
{4}2b,{16}4,6,4,6,{4}3b-7[8:1],{8}5,5,
5/1,5/2,{4}5-2[8:1]/3-6[8:1],5/3,7h[4:1],
{8}1,,,6/2,,3,{4}5,
{8}3/5,,,4V68[4:1],,8V24[4:1],,4<8[4:1],
,1,2,3,{4}4-1[8:1],4,
{8}7,7-4[8:1],,5-2[8:1],,,,,6,
7,8,1-6[8:1]/2-4[8:1],,2/1,,,5<8[8:1],
3,2,1w5[8:1],,1,,3/7,
,5/1,2/6,7/3,{4}4b/8b,{8}8-6[8:1],8-2[8:1],
8-5[8:1],8-3[8:1],8-4b[8:1],8,{4}8b,Cf/B6/E6/B5/B2/B1/E2,
{8},7-3[8:1],6/4,7/3,2,1-5[8:1],,1/7V53[4:1],
,4,3,2,{4}1-4[8:1],{8}1,6-1[8:1],
,6,{4}4bw8[8:1],4b,{8}2-5[8:1],1,
8,7-2[8:1],6,5,{4}4-1[8:1]*-7[8:1],4b,
{8},2/6-2[8:1],,2,3,4-8[8:1],,6-2[8:1],
,5,4,3,{16}2-4[8:1],8,2,8,{4}2,
{16}7-5[8:1],3,7,3,{4}7,{16}2,4,2,4,1,5,1,5,
{32}1,2,3,4,5,6,7,8,1,2,3,4,{8}5-1[8:1],6,7,,8-4[8:1],
1,2,,3w7[8:1],2/4,3,,1-5[8:1],
5-1[8:1],1,7,7w3[8:1],7,7,,1>4[8:1]/5<8[8:1],
,5/1,,5/1,{4}5-3[8:1]/1-7[8:1],5v2[8:1]/1v6[8:1],
5/1,{8}Cf/B8/E8/B7/B3/B4/E4,8-4[8:1]/7-4[8:1],6,7/8,,1-5[8:1]/2-5[8:1],
3,2/1,,8-4[8:1]/7-3[8:1],6/1,8/7,,1-5[8:1]/2-6[8:1],
3/8,2/1,,,8/1,8-5[8:1]/1-4[8:1],8/1,1/8,
,8-6[8:1]/1-5[8:1],,8-4[8:1]/1-3[8:1],,8-6[8:1]/1-5[8:1],,1b/8b,
,,Cf,4-2[8:1]/8-6[8:1],3/7,4/8,,1-3[8:1]/5-7[8:1],
2/6,5/1,,6-1[8:1]/2-5[8:1],7/3,2/6,,4-1[8:1]/8-5[8:1],
3/6,8/4,,6/2,7/1,8b,{32},,,,1,2,{16}3h[16:3],
{32},,,,7,6,{16}5h[16:3],,,{8}3-7[8:1],,6,{4}5w1[8:1],
5b,{8}B7/E8/B8/B3/E4/B4/Cf,2,{4}2V46[4:1],6V82[4:1],
2>6[4:1],6<2b[4:1],2V46b[4:1],6V82b[4:1],
2bw6b[8:1],A2f,{32}1,2,3,4,5,6,7,8,1,2,3,4,5,6,7,8,
1,2,3,4,5,6,7,8,1,2,3,4,5,6,7,8,{16}1b,5b,1b,5b,1b,5b,1b,5b,
{8}1-5[8:1],5,6,7w3[8:1],,7,,5/1,
1-5[8:1],2/4,1/5,6-3[8:1]*-1[8:1],,6,,2,
2-6[8:1],6-2[8:1],2,8w4[8:1],,8,,1w5[8:1],
,1,,7/3,{4}7>2[8:1]/3<6[8:1],7b/3b,
8-4[8:1],{8}6,6-3[8:1]*-1[8:1],,6,,,2-6[8:1],
1,8,7w3[8:1],,7,,,1/5,
6/2,3/7,8-6[8:1]/4-2[8:1],,8v5[8:1]/4v1[8:1],,4/8,
,2-6[8:1],,2/6,{4}8-4[8:1],8/2,
{16}3,5,3,5,3,5,3,5,{4}3-6[8:1]*-8[8:1],3,
{8},7/5,6,5,4/2,4-1[8:1]/2-5[8:1],,4/2,
,6/8,7/5,6/4,{4}5/3-7[8:1],{8}3,5-1[8:1],
,5,{4}2w6[8:1],2,8-4[8:1],
{8}8/4,3,2,1/5,{4}5-7[8:1]/1-3[8:1],5/1,
{8},4-6[8:1],3-7[8:1],4-8[8:1],3,4,,1-5[8:1],
,1/8,7,6,{16}5,1,5,1,5,1,5,1,
6,2,6,2,6,2,6,2,7,3,7,3,8,4,8,4,
{8}8-4[8:1],2-6[8:1],8b,2w6[8:1],,2b,,,8-6[8:1],
8-2[8:1],8,8-4[8:1],,8b,,,2-6[8:1],
6-2[8:1],2b,8b-6[8:1]*-4[8:1],,8b,,1b-3[8:1]*-5[8:1],
,1b,,4b/8b,{4}4b>1[8:1]/8b<5[8:1],4/8,
4-8[8:1],{8}4b,4w8[8:1],,4b,,,2-6[8:1],
8-4[8:1],2b,8b>3[8:1]*<5[8:1],,8b,,,{4}4-8[8:1],
{8}4b,6-4[8:1]*-8[8:1],,6bw2[8:1],,6b,
,8b-4[8:1],1b-5[8:1],8b,{4}1b-3[8:1]*-7[8:1],1b,
{16}4b,6b,4b,6b,4b,6b,4b,6b,{4}5bw1[8:1],5b,
{8},8b-4[8:1],1,2,{4}3b-7[8:1],{8}5,6b-2[8:1],
,2,3,4,{4}5b-1[8:1],{8}4b,3b-7[8:1],
,4b,{4}5bw1[8:1],A5f,{8}7b/3b,3b/7b,
3b/7b,7b/3b,7b/3b,7b/3b,{4}3bv8[8:1]/7bv4[8:1],Cf,
{8},1b/Cf,{4}2b/Cf,{8}5b/Cf,6b/Cf,,1b-5[8:1],
,1b/8b,7b,6b,{16}5b,4b,5b,4b,5b,3b,5b,3b,
5b,2b,5b,2b,5b,1b,5b,1b,{4}5b-2[8:1]*-8[8:1],5b,
{8}1b-5[8:1],5,6,7bw3[8:1],,A7f,,5/1,
1b-5[8:1],2/4,1/5,6b-1[8:1]*-3[8:1],,A6f,,2,
2b-6[8:1],6b-2[8:1],2,8bw4[8:1],,A8f,,1bw5[8:1],
,A1f,,7/3,{4}7b>2[8:1]/3b<6[8:1],7b/3b,
8b-4[8:1],{8}6,6b-3[8:1]*-1[8:1],,A6f,,,2b-6[8:1],
1,8,7bw3[8:1],,A7f,,,1b/5b,
2b/6b,3b/7b,4b-2[8:1]/8b-6[8:1],,4bv1[8:1]/8bv5[8:1],,Cf,
,2b-6[8:1],,2/Cf,{4}8b-4[8:1],8/Cf,
{16}3b,5b,3b,5b,3b,5b,3b,5b,{4}3b-6[8:1]*-8[8:1],A3f,
{8},7/5,6,5,4/2,4b-1[8:1]/2b-5[8:1],,B3f,
,6/8,7/5,6/4,{4}5/3b-7[8:1],{8}3,5b-1[8:1],
,5,{4}2bw6[8:1],A2f,8b-4[8:1],
{8}8/4,3,2,1/5,{4}5b-1[8:1]/1b-5[8:1],Cf,
{8},7b/Cf,{4}7b/Cf,{8}3b/Cf,Cf/3b-7[8:1],,,,,6b/4b,
4b/6b,{16},,5b,5b,5b,5b,5b,5b,
5b,5b,5b,5b,5b,5b,5b,5b,5b,5b,5b,5b,5b,5b,5b,5b,
5b,5b,5b,5b,5bw1[8:1],5b,5b,5b,{2}5b/Cf,
E
