&title=Dj Got Us Fallin' In Love
&artist=Usher; Pitbull
&first=0.01
&des=DJ BOBO
&lv_5=13
&inote_1=
&inote_5=(120)
{4},,,,
{4}2,3,
{16}14,,,14,,,14,,
{4}7,6,
{16}85,,,85,,,85,,
{4}1,4,
{16}23,,,23,,,23,,
{4}8qq2[4:2],,,,
{8}3-6-4[4:1],,3,,8-3[8:1],,3-6[8:1],,
7-2-8[4:1],,7,,4-7[8:1],,7-2[8:1],,
{8}3-6[8:1],,7-2[8:1],,
3-6[8:1],,3,7-2-7[4:1],,7,3-6[8:1],,3-8[8:1],,,,
{8}6-3-5[4:1],,6,,1-6[8:1],1,6-3[8:1],,
2-7-1[4:1],,2,,5-2[8:1],5,2-7[8:1],,
{8}6-3[8:1],,2-7[8:1],,
6-3[8:1],,6,2-7-2[4:1],,2,6-3[8:1],,6-1[8:1],,,,
{4}3-8[8:1]/2-8[8:1],,6-1[8:1]/7-1[8:1],,
{4}3-6[8:1],2-7[8:1],6-3[8:1],7,
{4}6-1[8:1]/7-1[8:1],,3-8[8:1]/2-8[8:1],,
{4}6-3[8:1],3-7[8:1],3-6[8:1],2,
{4}1/7-3[8:1]*v2[8:1],,2-6[8:1]/3v6[8:1],,
5q2[8:1],3-6[8:1],2p5[8:1],,
2h[8:1]/3pp6[4:4],2h[8:1],2h[8:1],{8},7h[8:1]
,,7h,7h,,
{8}36,45,3v2[8:1]/6q2[8:1],,
{4}6v7[8:1]/3p7[8:1],3v2[8:1]/6q2[8:1],36,36,A1/E2/B2/B3/B4/E8/B7/B6/B5/C/E5/D5f/E3/D3/A5,
8qq2[4:1],84,
3<4qq5pp4[4:2],1h[4:2],,,2-5[8:1]/3-8[8:1],2-7[8:1]/3-6[8:1],,
{8}63,54,6v7[8:1]/3p7[8:1],,
{4}3v2[8:1]/6q2[8:1],6v7[8:1]/3p7[8:1],63,63,A1/E2/B2/B3/B4/E8/B7/B6/B5/C/E5/D5f/E3/D3/A5,
1pp7[4:1],15,
6<3>6<3>6[4:4],5h[4:3]/A6,A3,A6,A3,5-3[8:1]*-2[8:1],5v7[8:1]*v6[8:1],5-1[8:1]*p1[8:1],,
{32}2/3,4x,5x,,,,,,2-8[8:1]/3-8[8:1],4x,5x,,,,,,{4}2-5[8:1]/3-5[8:1],,
{32}7/6,5x,4x,,,,,,7-1[8:1]/6-1[8:1],5x,4x,,,,,,{4}7-4[8:1]/6-4[8:1],,
{32}2/3,4x,5x,,,,,,2-8[8:1]/3-8[8:1],4x,5x,,,,,,
{4}2-5[8:1]/3-5[8:1],,7-4<6-1[4:1],
{8}7,1,2,3,4w8[8:1],,4>4[8:3]*<4[8:3]``Cf,,,,,,
{4}36,A1/E2/B2/B3/B4/E8/B7/B6/B5/C/E5/D5f/E3/D3/A5,
1pp7[4:1],15,
6>5pp4qq5[4:2],8h[4:2],,,7-4[8:1]/6-1[8:1],7-2[8:1]/6-3[8:1],7v8[8:1]/6v5[8:1],
,2b,
{8}6-3-5[4:1],,6,,1-6[8:1],1,6-3[8:1],,
2-7-1[4:1],,2,,5-2[8:1],5,2-7[8:1],,
{8}6-3[8:1],,7-2[8:1],,
6-3[8:1],,6,2-7-2[4:1],,2,3-6[8:1],,1-6[8:1],,,,
{8}3-6-4[4:1],,3,,8-3[8:1],8,3-6[8:1],,
7-2-8[4:1],,7,,4p7[8:1],4,7-2[8:1],,
{8}3-6[8:1],,2-7[8:1],,
3-6[8:1],,3,7-2-7[4:1],,7,3-6[8:1],,3-8[8:1],,,,
{4}6-1[8:1]/7-1[8:1],,3-8[8:1]/2-8[8:1],,
{4}6-3[8:1],7-2[8:1],6-3[8:1],2,
{4}3-8[8:1]/2-8[8:1],,6-1[8:1]/7-1[8:1],,
{4}3-6[8:1],6p3[8:3],7,7,
{4}8/2-6[8:1]*v7[8:1],,7-3[8:1]/6v3[8:1],,
4p7[8:1],6-3[8:1],7q4[8:1],,
7h[8:1]/6qq3b[4:4],7h[8:1],7h[8:1],{8},2h[8:1],,2h,2h,,
{8}63,54,6-1[8:1]/3-8[8:1],,,,,,,,
{4}36,A1/E2/B2/B3/B4/E8/B7/B6/B5/C/E5/D5/E3/D3/A5,
1pp7[4:1],15,
6qq1[4:4],6h[4:3],,,,,,7,2q5[4:3],
{8}2h[8:1],,2h[8:1],,{16}2h[8:1],,,2h[8:1],,,2h[8:1],,
{8}7h[8:1],,7h[8:1],,{16}7h[8:1],,,7h[8:1],,,7h[8:1],,
{8}4h[8:1],,4h[8:1],,{16}5h[8:1],,,5h[8:1],,,5,4qq4[4:2]*pp4[4:2],
{4},,,
{32},,,,,,,,
{32}7b/6b,5x,4x,,,,,,7b-1[8:1]/6b-1[8:1],5x,4x,,,,,,{4}7b-4[8:1]/6b-4[8:1],,
{32}2b/3b,4x,5x,,,,,,2b-8[8:1]/3b-8[8:1],4x,5x,,,,,,{4}2b-5[8:1]/3b-5[8:1],,
{32}7b/6b,5x,4x,,,,,,7b-1[8:1]/6b-1[8:1],5x,4x,,,,,,
{4}7b-4[8:1]/6b-4[8:1],,2-5>3-8[4:1],
{8}2,8,7,6,5w1[8:1]*-1-5[8:2],,5b<5[8:3]*>5[8:3]``Cf,,,,,,
{4}63,A1/E2/B2/B3/B4/E8/B7/B6/B5/C/E5/D5f/E3/D3/A5,
8qq2[4:1],84,
3<4qq5pp4[4:2],1h[4:2],,,2-5[8:1]/3-8[8:1],2-7[8:1]/3-6[8:1],2-6[8:1]/3-7[8:1],
,7b-3>2b[8:1]*qq5b[8:1],,,
{4}1,{64},,,,,,,,,,,,,{32}7,,7,,7-3-7[6:1],,7,,
