&title=Seraphim (Long Ver.)
&artist=Yooh
&first=0.7
&lv_5=14
&des_5=senbie
&inote_5=
(186){4}3,3,3p8[8:3],5,
6,7,{2}8q4[4:1]*p4[4:1],
A4f,{4}Ch[12:19],E2,
E8,E5,{12}E5,{3},{12}5,
6,7,{3},{4}1,2,
3,8,{2}7qq4[8:3],
3,2q5[8:3],
{4}6,{12}6,5,6,{2}5,
{4}4,3,2,1,
1,2,{2}2<7[4:1],
6>3[4:1],{4}1-5[8:3],1,
8-4[8:3],8,{2}3h[2:1],
6b,{4}2,3,
7,6,{2}4p1[8:3],
5q8[8:3],1,
{4}8,{12}2,7,2,{2}7,
{4}2-6[8:3],2,{2}8w4[4:3],
,,,{4}1/2-6[8:1],
2h[4:1],
{2},{4}8/7-3[4:1],7h[4:1],
{2},{4}2/3-7[4:1],3h[4:1],
{2},{4}7/6-2[4:1],6h[4:1],
{2},{32}1/8,2/7,3/6,5-8[8:1]/4-1[8:1],,,,,,,,4/5,{8},,,,,{4}3/4-8[4:1],
4h[4:1],
{2},{4}6/5-1[4:1],5h[4:1],
{2},{4}5/4-8[4:1],4h[4:1],
{8},,,{16}1,8,1h[4:1],{8},{16}6-1[8:1],6,{8},{16}3-8[8:1],
3,{8},{16}7-4[8:1],7,{8},{16}2-5[8:1],2,{8},{16}6-8[8:1],6,{8},{16}1-5[8:1],
2-4[8:1],{8},{16}1,2,{8},{16}7-4[8:1],2-5[8:1],{8},{16}7,2,{8},{16}3-8[8:1],
6-1[8:1],{8},{16}3,6,{8},{16}2-5[8:1],2,{8},{16}8-4[8:1],8,{8},{16}3,
3-1[8:1],{8},{16}3,{8}3,{16}4,{48}5,6,7,8,1,,,,,,,,{16}2/5,2,{8},{16}3/7,
7,{8},{16}6/4,4,{8},{16}8/4,8/4,{8},{16}2,2,{8},{16}4,
4,{8},{16}6,{4}6,{12}2,4,3,7,5,6,
1,3,2,8,6,7,{6}8,8,8,
8/1,8/2,3/8,{24}8/3,{12},{24}2,{48},{16}1,{8}2,5/3,
{16}4,5,{8}3,6/4,{16}5,6,{8}4,3/6,{16}4,5,{8}4,
2/5,{16}3,4,2,8bh[24:5],{48},1,2,3,4,5,6,7,,,,,,,,{16}4,3,4,,5/2,
,6,5,6,,7/4,,3,4,3,{8}7-3[0.2419##0.2419],{16},7b/2-6[16:3],,,,2b,
,,,8b/1-5[8:1],,2/7,,1b,,,,,,2/5,
,7,8,7,,4,,2,1,2,,5/6,,7,8,7,
,8/7,,8/7,,8/7,{32}1,2,3,4,{8}5/6,{16}7,8,{8}7,4/5,
{16}2,1,{8}2,7/8-4[8:1],{16}1,2,{4}8,8/1-5[8:1],
1/8-4[8:1],8/2-6[8:1],{8}2/7,{16}8,1,{8}8,2/7,
{16}3,4,{8}3,2/5,{16}4,6,{8}4,3/6,{16}2,1,{8}2,
8/3,{16}5,6,{4}1b,{16}1h[8:1]/5h[8:1],{8},{16}2/6,{8}3/7,4h[8:1]/8h[8:1],
{16},3/7,{8}2/6,{4}1b/8b,{16}2h[8:1]/1h[8:1],{8},{16}4h[8:1]/5h[8:1],{8},8h[8:1]/7h[8:1],
{16},2h[8:1]/1h[8:1],{8},{16}4h[8:1]/5h[8:1],{8},{16}8h[8:1]/7h[8:1],,,,1,2,3,,4/5,
,6,7,8,,5/1h[16:3],,4,3,2,,8b,3,4,3,4,
2,1,8,7,{8}4h[3:4],{16}7,8,1,2,3,5,6,7,8,1,
2,3,5,6,7,8,1,2,{6}3,{12}5,6,8,4,
3,1,5,6,{24},1,8,1,8,1,{12}8-4[8:1],{8},{24}1-5[8:1],,,,,,7-3[8:1],
,,,,,1-4[8:1],{12},1,{8},5,{6},{12}1-3[8:1],
{24},1-7[8:1],{12},{24}1-4[8:1],{12},{24}1-6[8:1],{12},1,{24},1,{6},{4}5-1[8:1],
4-8[8:1],{8}4,7-4[8:1],,7,{16},8/1-5[8:1],,7,
,1b/8-4[8:1],,2,,8b/1-5[8:1],,7,,1b,{8},{4}6,
5-7[8:1],{8}5-3[8:1],5,,8-6[8:1],,8-2[8:1],
8-5[8:1],8-3[8:1],8,8,{16}6h[16:7],{8},,,{16}1,
,4/3h[8:3],,,,,,8,,4/5h[16:5],3,2,{8}1-5[8:1],{16}6,7,
{4}1b/8-4[8:1],8b,2v5[8:1],2b/6v1[8:1],
6b,{8}7-3[8:1],2-6[8:1],7,2,,8-6[8:1],
8-2[8:1],8-5[8:1],8-3[8:1],8,{4}8,4-8[8:1],
4,{8}3/7,1/5,,3/4,,4-2[8:1],
4-6[8:1],4-1[8:1],4-7[8:1],4,4,{4},{8}2,
4/5h[4:1],{4},{8}7,5/4h[4:1],{4},{16}4,5,
{8}3,{16}5,4,{4}6,{8}4/3h[4:1],{4},{8}4/5,
{2}5/6h[4:1],{16}2h[16:1]/C,{8},{16}7h[16:1]/C,{8},1h[16:1]/C,
{16},8h[16:1]/C,,3h[16:1]/C,{8},6h[16:1]/C,{16},1/8,,8,1,8,,6/4,
,5,4,6,,3/5,,2,1,8,{24},{12}8-3[8:1],{6},{12}4-7[8:1],
{6},4,{24},{8}3b,3/8,{16}2,1,{8}2,1/8,
{16}5,6,{8}5,4/7,{16}3,2,{8}1-5[8:1],8-4[8:1],{16},,,6-2[8:1],
,,,6b,{8},{16}4,3,5,2,6,1,7,5,6,4,
7,3,8,2,1,2,1,3,8,4,7,5,6,3,4,2,
5,1,6,8,7,5,6,4,7,2-6[8:1],{32},,,7,{8},8,
{16},2-5[8:1],{8},6,7,{16},2>5[8:1],,6,7,8,{8},{4}1-5[8:1],
1b,{32}2/6,{8},{32}2/6,3/7,4/8,1/5,{8},{32}3,{8},{32}2/8,
3/7,4/6,5,{16},{8}8/7,4/5,2/1,{32}2/1,{16},{32}3/8,4/7,5/6,{16},{8}1h[32:5],
{16}5h[32:1],{32}2/6,3/7,4/8,5/1,{16},1,5,8,4,7,3,{32},1,8,7,6,5h[32:17],,,,2,,,,8,
,1,2,3,{16}4h[8:1],{8},{16}6,3,7,2/8,{32},1,,8/2,7/3,6/4,{16}5,{8},{12}8/1,
8/2,8/3,3/8,2/8,8/1,{4}7-3[8:1],{8}7,8,
1,2,3,2,{16}1/4h[16:7],2,3,5,6,7,8,1,
5b/2,3,6b/4,5,7b/6,8,{32}1,2/8,3/7,4/6,{2}5-3-6-2-7-1[1:1],
,1w5[4:1],
{32},,,8h[32:13],{8},{12}1,1,2,{16}3,7/4,,5,6,5,,4/7,
,6,5,6,,3/6,,4,5,4,,2/5,,3,4,3,
,2/5,,3,4,1bh[4:1],{32}8,7,6,5,{16}4,{8},{16}3,4,3,,2/5,
,3,4,3,,2/5,,3,4,2-6[8:1],,,,2b/7-1[8:1],,,,7b/3-5[8:1],
,,,6/3b,,7,,8/3,,2,1,2,,4/7,
,2,1,2,,5/6,,2,1,2,,2/7,,1,8,1,
,3/4,,5/6,,1/8,{32},2,3,4,{8}5/6,{16}6,5,{8}6,4/7,
{16}5,6,{8}5,6/3-8[8:1],{16}4,5,{4}3b/6-1[8:1],6b/2-5[8:1],
2b/7-4[8:1],7b/3,{8}5/3-8[8:1],{16}4,6,{8}3,6,
1/7-4[8:1],{16}8,2,{8}7,3,5/3>8[8:1],{16}4,6,{8}3,7,
1/7<4[8:1],{16}8,2,{4}7/1h[4:1],{8}8>3[8:1],{16}7,6,{8}8,5,
2/4<7[8:1],{16}3,2,{8}4,1,{6}8/1b,3b/4,5/6b,
8/1b,6/5b,4b/3,{24}8/1,{12},{24}3,{48},{16}4,{8}3,1/7,
{16}3,4,{8}3,2/6,{16}3,4,{8}3,5/3,{16}5,4,{8}5,
6/3,4,6/5,8b,{16}1/5,2,3,4,5,6,7/3,2,
1,8,7,6,5,4/7,8,1,{12}2,3h,4,2,6,5,
7,3,4,1,{96}1h[6:1],{16},{96}5,{48},{32}6,7,{2}8<8[4:7],
,,,2>2[4:7],
,,,{8}7h[2:1],
{4},{16}8,1,
{8}2,{4},{16}B8,B1,{4}B2,B3/E3/E4,
E5,{8}E7/B6/E6,8,8h[2:1],{4},{16}E2,C,
{8}E6,{2},{8}1>3[4:1],,3<5[4:1],
,5<7[4:1],,7>1[4:1],,5h[16:5],{16},,,,,6,
,7,,2,,3,,1,,2,,3,,4,
,5,,6,,5/6<1[16:3],,4,,3bh[16:23],{4},{8}2,
1,8,7,6,5,4,5,6,
5,4,3>7[1:1],4,5,{4},{16}E7,E6,
{8}E5,{4},{16}E6,E5,{4}E4,C,
{16}E8,{8},{16}E1,{8},E2,Ch[1:2],{4},{16}E8,E7,
{2}E6,{4}B7/E7/B6,E1/B8/B1,
2<6[4:1],2,,4,
4,3,3,2,
2,1,1,5,
5,6,6,7/E4,
7/B3,8/B2,8/E2,4,
4,3,3,2,
2,1,{8}1/Cfh[2:1],{4},{8}2,
{2}2h[4:3],4<7[4:1],
5>2[4:1],{4}7,7,
2,{8}2,2,,8,,8,
1/7,2/6,3/5,4,{4}4-1[8:1],8-5[8:1],
2-5[8:1],{8}7-4[8:1],7,,3>8[4:1],,3,
4,5,6,7,{2}1h[8:3]/7h[4:3],
{8}2h[4:1],{4},{8}6,4/3h[2:1],{4},{16}5,6,
{4}7h[4:1],2h[4:1],{8}6h[2:1],{4},{8}2,
{2}1h[12:5],{6}8b/C,3b/C,6b/C,
1b/C,5b/C,2b/C,3-8[8:1]/7-4[8:1],{12},{4}3/7,
5<8[16:3],{8}1-5[16:3],2,,8-4[8:1],,8/1-3[8:1],
1-7[8:1],1-4[8:1],1-6[8:1],1,1,{16}3,5,4p8[8:1],{8},{16}5,
{4}4,{8}7-3[8:1],7,,2h[4:1],,1,
3/8,4/7,6/5>2[8:1],5/6b,5/6b,{16}7,6,{4}4-2[8:1]/5-7[8:1],
4/5,{8}8,1q5[8:1],,1,{16},,,8,
,1/2,,3,,4/5,,3,,1/2,{4},{8}8-4[8:1],
1,{4},{8}2-6[8:1],5,{16}2,7,{4}8-6[8:1]*-5[8:1],
8-2[8:1]*-3[8:1],8,{16}5b/4b,{8},{16}6,5,6,,3,
4,3,{8},3,2-5[8:1],,6-1[8:1],,6,
4,3,2,8,7/1,{16}6,5,{4}6-1[8:1],
5-2[8:1],{8}5,8-4[8:1],,5-1[8:1],,5,
6,7,8-4[8:1],1,8b/2h[2:1],{4},{8}3,
4<7[4:1],{4},{8}2,1,{16}8,1,{8}2bh[8:1],{16}7,6,
{8}5bh[4:1],{16}2,3,{4}4bh[4:1],{16},5v2[16:3],{4},{8}4>1[8:1],
3,4,{16}8,7,6,5,{6}4b/C,1b/C,5b/C,
2b/C,6b/C,3b/C,{24}5/2,{12},{24}4,{48},{16}3,{8}4,6/2,
{16}4,3,{8}4,3/6,{16}4p8[8:1],5,{8}4,6q2[8:1],,1q5[8:1],
,8v3[8:1],,2,1,{16}5,3,{8}5,4/6,
{16}7,5,{8}6,4/7,{16}3-8[8:1],5,{8}4,5-2[8:1],,1-4[8:1],
,1,{16}8,7,6,5,4,3,2,1,8,7,6,5,
4,3,5,2,6,1,7,8,5,6,4,7,3,8,2,1,
3,4,2,5,6,7,8,1,2b-6b[16:3],{8},{16}4,{8},3,
{24},1b-5b[8:1],{8},{24}3,{8},2,2-6[16:1],{16}1,7,{8}2,{16}8,7,
{8}6,{16}8-5[16:1],1,{8}2,8,2,{32}1,2,3,4h[32:9],{8},6,
{32}8,3/7,2/6,1/5,{8},3/4,6/5,4/3,{32}1,2,3,4h[32:5],{8},6,
{32}8,7,6,5h[32:5],{8},4-2[8:1],{16}4,5,{8}4,{32}5,6,7,8,{8}1,2,
{32}2/8,3/7,4/6,5,{8},4/6,3/7,2/8,{32}1,2/8,3/7,4/6,{4}5h[8:1],
{12}3,4,1,6,5,8,{16}3h[16:3],{8},{16}4<8[2:1],{8},4,
3,2,{4}1,{16}1,2,3,4,5,6,7,8,
3b/1,2,2b/3,4,{24}5/1b,8,7,{96}6,{48},{96}5,{48},{32}4,3,{2}2-5[1:1],
,6-1[8:3],
{4},{24}3,4,5,6,7,8,{4}1-4[8:1]/5-8[8:1],1b/5b,
{8}2v5[8:1],{16}3,4,{8}2,6,{4}7-4[8:1]/8-3[8:1],7b/8b,
{8}2b,{16}3,4,{8}2-8[8:1],{16}3,4,{4}2b/5-7[8:1],5b/4-1[8:1],
4,7b/2-6[8:1],2b/7-1[8:1],7b/3-5[8:1],
{8}3b/6-1[8:1],8,6,{16}4,3,{4}2v5[8:1],2b/8,
{8}8<5[8:1],3,{4}8b,4b/3-7[8:1],3b/6-2[8:1],
{8}6,3,4,{16}4,3,{4}8<5[8:1]/2>5[8:1],2b/8b,
{8}3,4,{4}3,8/3-6[8:1],3b/1-6[8:1],
1b/2-5[8:1],2b/7,{16}4/6,{8},{16}2-5[8:1],2,{8},{16}7-4[8:1],
7,{8},{16}3-8[8:1],3,{8},{16}5-1[8:1],5,{8},{16}2-5[8:1],2,{8},{16}7-4[8:1],
7,{8},{16}3/7,3,{8},{16}2/6,{12}6/2,3,4,1,6,5,
8,3,4,1,6,5,8,3,4,2,6,5,
7,2,4,3,7,5,{16}6,4,5,4,5,3,6,3,
6,2,7,2,7,1,8,1,8,3,4,3,4,2,5,2,
5,1,6,1,6,8,7,8,{12}5,{96}1b,{16},{96}1/5,{48},{32}2/6,3/7,{12}4/8,{96}8b,{16},{96}8/4,{48},{32}7/3,6/2,
{12}5/1,{96}8b,{16},{96}8/4,{48},{32}1/5,2/6,{12}3/7,{96}8b,{16},{96}8/4,{48},{32}7/3,6/2,{6}5/1,1b-5b[8:1],2b,
3b-7b[8:1],4b,5b-1b[8:1],6b,7b-3b[8:1],8b,
1b,2b/4b,3b/6b,4bh[2:1]/8bh[2:1],{48},,,,,,,,,,,,,,,,,,,{16}3/7,
2/6,1q4>1[16:41]/5q8<5b[16:41],
E
