&title=生きとし生けるもの
&artist=天宮エリカ
&first=0.01
&des=八宝備仁
&clock_count=4
&lv_5=13
&inote_5=(87){1},,,
{48},,,,4h[32:9]`3-5[8:1],,,,,,,,,,,,,,,,,,,,,,,,,
5h[48:13]`6-4[8:1],,,,,,,,,,,,,,,,,,,,,,,,
3<3[2:1]`4>4[2:1],,,,,,,,,,,,,,,,,,,,,,,,,,,,,,,,,,,,,,,,,,,,,,,,
4h[48:13]`3-8[8:1],,,,,,,,,,,,,,,,,,,,,,,,
5h[48:13]`6-1[8:1],,,,,,,,,,,,,,,,,,,,,,,,
1q2[2:1]`2>1[2:1],,,,,,,,,,,,,,,,,,,,,,,,,,,,,,,,,,,,,,,,,,,,,,,,
3<6[6:1]`4,,,,,,,,,,,,,
{48},,,,,7,,,,,,7<4[6:1]`8,,,,,,,,,,,,,,,,,,,2,,,,,3qq6[2:1]`4<4[2:1],,
,,,,,,,,,,,,,,,,,,,,,,,,,,,,,,,,,,,,,,,,,,,,,,
6q4[6:1]`5h[48:13],,,,,,,,,,,,,,,,,,,,,,,,
3p5[6:1]`4h[48:13],,,,,,,,,,,,,,,,,,,,,,,,
6<5[2:1]`5p3[2:1]*p3[2:1],,,,,,,5,,,,,,,,,,,,,,,,,,,,,,,,,,,,,,,,,,,,
{16},,5/6,,6-8[8:1],,4,,5/6,,3-1[8:1],,4,,3/8,,7,7qq8[4:1],,,,7,8>7[4:1],,
3,,3,,,,2,,2h[8:1],,
7,,2/7-4[8:1],,3,,2-7[8:1]/7,,2,,2/5,,6,,8qq5[16:5],8h[16:1],,,,5<3[4:1],,,,,
1,,4h[16:1],,,5h[16:1],,,6,,
4/6-3[8:1],,4,,6/4,,2,,2q5[4:1],,2,,5qq6[4:1],5,,,,,,,
7,,8,,1-5[8:1],,2,,1/3,3,3<6[8:1],,,,3/6,,
7,,8,1,7,2,6>2[6:1],3,5,4,8V64[6:1],,,,4V28[6:1]/8,,,,
8V64[6:1],,,4,,,3,,2qq6[4:1]/4,,,,
2,,,,7,8,1,2,6,5,4,3,7,6,5,4,3,2,1,
{64}8x>5[32:6],7x>5b[32:5],6x,5x,
{16},,,,,,
7,8,1b-5b[70#16:1],,4,4>1^7[6:1],,1,,4pp3[6:1],,,,,8,,
8-4[12:1],,1/6>6[4:1],,8,,6pp4[5:1],,5,,4,,3,3,,,
3,2,1-5b[70#16:1],,6,6<1^4[5:1],,1,,6qq7[5:1],,,,,
1qq6[4:1],2,3,,4qq1b[4:1],,,,4,,5,,5pp4[6:1],,6,1>4[12:1],,,
1,1,8-4b[70#16:1],,5,5<8^3[5:1],,8,,5qq6[6:1],,,,,,,
1-6[12:1],,8>8[4:1]/3,,1,,8qq5[4:1],,1,,2,,3,3,,,
4<7[12:1]/5>2[12:1],,4/5,,,,,,
1-5[12:1]/8,,1/8V61[6:1],,1,,8qq1[4:1],,3pp2b[4:1],3,,,,,,,,,
8,7,6,5,1,2,3qq2[6:1],4,5pp4[4:1],,,,5,,3,,2,,
1-5[12:1],,5/8,,1/6,6,7>2[12:1],,5,5,7,4,4,3,
{24}2,4,3,7,5,6,3,4,2,
{16}
5h[16:1],,1,1p4b[12:1],5,5<8^3[5:1],,1,,5qq6[5:1],,,,,,,
1-5[12:1],,2/8<8[4:1],,1,,8pp6[4:1],,1,,5,,5,4,4,,
3,2,1/7p2b[70#16:1],,4,4>7^5[5:1],,7,,4/8qq1[6:1],,,,8,
1,2,3<6[12:1],,4,,3/8p4[12:1],,1V37[6:1],,3/8,,1,,6>3[12:1],6,,,
6/3,2,1p4b[70#16:1],,6,6<1^4[5:1],,1,,6/2pp1[6:1],,,,2,
6,7,8<5[12:1],,7,,2q6[12:1]/8,,1V73[6:1],,2/7,,1,,5>1[8:1],5,,,
8/5,7,6h[8:1],,,,1-3[12:1]/7,,3-7[12:1]/5,,1/7>5[5:1],,,,,,
6pp6[4:1],6pp5[4:1],6,,,,,,,,
4,3,2,1,5,6,7qq8[4:1],8pp1[6:1],1,,,,,,,,
2,,3>4[16:5]/4,,5/6,,7/3,7qq2[4:1],,,,,,,,,
4,3,2,1,8,7,6,5,
4^3^2^1^8^7^6^5[32:8]`3^1^7^5b[32:8],,E2,E3,E4,E5,E6,E7,
{96}E8,E1,E2,E3,3x<6[12:1],,,,,,,,
{84},,,,,,,,,,,,,,,,,,,,,,,,,,,,,
E7,C,E3,,,,,,,,,,,,,,,,,,,,,,,,,,,,,,,,,,,,,,,,,
7qq4[3:1],E3,E4,E5,,,,,,,,,,,,,,,,,,,,,,,,,,,,,,,,,,,,,,,
E1,E2,E3,3xqq8[8:3]*pp6[8:3],,,,,,,,,,,,,,,,,,,,,,,,,,,,,,,
,,,,,,,,,,,,,,,,,,,,,,,,,,,,,,,,,,,,,,,,,,,,,,,,,
2pp5[3:1],E8,E7,E6,,,,,,,,,,,,,,,,,,,,,,,,,,,,,,,,,,,,,,,
E2,E1,E8,7xpp2[16:4],,,,,,,,,,,,,,,,,,,,,,,,,,,,,,,,,,,,,,,,
E3,E4,E5,5xqq2[8:3]*pp8[8:3],,,,,,,,,,,,,,,,,,,,,,,,,,,,,,
,,,,,,,,,,,,,,,,,,,,,,,,,,,,,,,,,,,,,,,,,,,,,,,,,,,
1pp4[3:1],6x,5x,4x,,,,,,,,,,,,,,,,,,,,,,,,,,,,,,,,,,,,,,
7x,6x,5xpp4[3:1],,,,,,,,,,,,,,,,,,,,,,,,,,,,,,,,,,,,,,,
1x,2x,3xqq6[8:3]*qq4[8:3],,,,,,,,,,,,,,,,,,,,,,,,,,,,,,,
,,,,,,,,,,,,,,,,,,,,,,,,,,,,,,,,,,,,,,,,,,,,,,,,,,,
7,2x,3x,4xqq1[3:1],,,,,,,,,,,,,,,,,,,,,,,,,,,,,,,,,,,,,,,,,
6x,5x,4xpp7[3:1],,,,,,,,,,,,,,,,,,,,,,,,,,,,,,,,,,,,,,,,,
1x,2x,3x<3<5[8:4],,,,,,,,,,,,,,,,,,,,,,,,,,,,,,
{384},,,,,,,,,,,,,,,,,,,,,,,,
{16}E8,E7,E6,E5,E4,E3,E2,E1,
{96}E8,,,,,,,E7,,,,,,,A6/E6/A5,,,,,,,A4/E5/E4,,,,,,,A3/E3/A2,,,,,,,
E1/E2/A1,,,,,,,A7/A8/E8,,,,,,,,A6/E7/E6,,,,,,,,A5/A4/E5,,,,,,,,
{64}D3,E3,B3,C,B7,E7,D7,,
{16},,
{1},,,
E
