&title=Ashen 6oundary
&artist=YUKIYANAGI
&first=0.03
&des=布丁罐头
&lv_5=13+
&inote_5=(172)
{1},
,1<1<1<1<1[1:7],,,,,,,,
{8}6,,,,5,,,,4,,3,,2,,1>8[2:3],,5h[1:1],,,,,,,,,,,,,,,,
7,,,,8,,,,1,,2,,3,,4>5[1:1],,8h[2:1],,,,,,,,8xb,,,,,,,,
4h[1:1]/8,,,,,,,,{16}6,,4,5,4,,6,,4,5,4,,6,,4,,
6-3[8:1],,,,,,2-6[8:1],,,,,,7h[4:1],,,,
3,,6,4,6,,3,,6,4,6,,3,,6,,{1}3xb^6[4:1],
{8}8,,1,8,1,8,1,,2,2,7,2,2,7,2,,6,6,3,6,6,3,6,,
4xb,4,4,4,4,4,4,4,5,5,5,5,5,5,5,5,{16}4,5,4,5,4,5,4,5,4,5,4,5,4,5,4,5,
{1}4h[1:1],{8}5,,46,,3,4,25,,1,,28,,7,1,{16}7,7x,7x,,
{16}3,4,3,4,3,,6,5,6,5,6,,4,5,4,,
5,4,5,4,5,,3,4,3,4,3,,6,5,6,,
4,7,4,7,4,,5,2,5,2,5,,3,6,3,,
7,2,7,2,7,,2,7,2,7,2,,8,1,8,,
2,1,2,1,2,,7,8,7,8,7,,1,8,1,8,
2,1,2,1,2,,7,8,7,8,7,,3,6,3,6,
2,4,2,4,2,,7,5,7,5,7,,4,5,4,5,
{1}4h[1:1],{16}5,,,,3,4,3,4,2,4,2,4,1,4,1,4,1h[8:1],,
5,4,5,4,6,4,6,4,7,4,7,4,8,4,8h[8:1],,
5,6,5,6,4,6,4,6,3,6,3,6,2,6,2h[8:1],,
6,5,6,5,7,5,7,5,8,5,8,5,1,5,
1-5[8:1],,,,1/2-6[8:1],,,,2/8-4[8:1],,,,18,,,,
7-3[8:1],,,,7/1-6[8:1],,,,1/5-8[8:1],,,,51,,,,
12,,12,,38,,38,,47,,47,,56,,56,,{1}5qq2[2:1]/6qq1[2:1],
{16}8-4[8:1],,,,3,,,,2-8-3[4:1],,5,,5,,,,
7,7x-4[8:1],,,2,,,,1-5[8:1],,,,8,,,,
{8}8^3[8:1],7,6,5^8[8:1],4,3,2,,
2^4[8:1],,5^7[8:1],,{16}1,1x,1x,,1x-4[8:1],,,,
{8}5-8[8:1],,3,,3-5-1[4:1],8,8,,
{16}6,6x-2[8:1],,,3,,,,4-8[8:1],,,,5,,,,
{8}5^2[8:1],6,7,8^5[8:1],1,2,3,,
{16}4/8^3[8:1],,,8x^5[8:1],,,8x-4[8:1],,,,,,,,,,
{8}1v4[8:1],,6,,7-5[8:1],5-3[8:1],7,,
{16}2,2q6[8:1],,,7,,,,8-4[8:1],,,,8,,,
1-4[8:1],,,,,5,,,,6-8-4[4:1],,6,,3,,,,
2,,2,,5-7[8:1],,5,,1-4[8:1],,,,8-4[8:1],,,,
2-6[8:1],,,,7,,,,8-4[8:1],,4-6[8:1],,8,,,,
1,1-6[8:1],,,4-8[8:1],,,,4,,,,,,,,
3h[8:1]/7h[8:1],,,3h[8:1]/7h[8:1],,,
2h[8:1]/6h[8:1],,,2h[8:1]/6h[8:1],,,1h[8:1]/5h[8:1],,,,{1}1qq5[2:1]/5qq1[2:1],
2xb/6xb<6<6<6<6b[1:7],,,,,,,,
{8}3,,,,2,,,,1,,8,,7,,6<5[2:3],,2h[1:1],,,,,,,,,,,,,,,,
4,,,,5,,,,6,,7,,8,,1<2[1:1],,5h[2:1]
,,,,,,,,5xb,,,,,,,,
5h[4:1]/4,,,3^1[8:1]/6^8[8:1],,,,,
{16}3,,3,,6,,3,,3,,6,,3,5,3,,
6,,6,,3,,6,,6,,3,,6,4,6,,
3,,3,,6,,3,,3,,6,,6h[4:1]/3,,,,
{4}4xb,45,46,47,{8}48,4,38,3,28,2,18,1,
{16}1,5,1,5,1,6,1,6,1,7,1,7,1,8,1,8,
{4}1h[4:3],,,{16}8,7,6,5,{8}1,2,3,84,7,6,15,2,
3,84,7,6h[8:2],,,{16}1,1,5,5,
2,,2,4,3,5,3,,35,,4,,46,,5,4,
6,,6,5,7,5,7,,28,,3,,2h[16:3]/1,,,4,
2,,2,4,3,5,4,,57,,6,,24,,3,3,
6,,6,4,5,3,5,,24,,3h[8:3],,7xb,,7xb,,
,,3,5,4,6,5,,7-4[8:1],,8-3[8:1],,7,,8,,
6,,6,4,5,3,4,,2-6[8:1],,4,,2,,,5,
3,,3,5,4,6,5,,48,,7,,15,,2,2,
7h[4:1],,2,3,4,,4h[4:1],,7,6,5,,4-8[8:1]/5-1[8:1],,,,
45,,,,2,4,3,7,5,6,2,4,3,,3,5,
3,,3,4,2,4,2,,71,,6,,7h[16:3]/8,,,5,
7,,7,5,6,4,5,,42,,3,,75,,6,6,
3,,3,4,2,4,2,,71,,6,,7h[16:3]/8,,,5,
{8}7-4[8:1],3,3,3-8[8:1],,7,7,7,
6-1[8:1],2,2,2-5[8:1],,6,7,8,
{16}1,8,1,8,2,7,2,7,
{24}3,6x,3x,6x,3x,6x,4,5x,4x,5x,4x,5x,
{1}4xhb[1:1],8b,
