&title=Zephyrs
&artist=Frums
&first=1
&des=Moiyang
&lv_5=14
&inote_5=(170)
,5w1[4:13],,,,,,,,,,,,,,,
{8}7h[4:2]/3,,,,B3,,,2h[8:5]/6,,,6,,B6,,,,
{8}7h[4:2]/3,,,,B3,,,2h[8:5]/6,,,6,,B6,,,,
{8}8h[4:2]/4,,,,C,,,1h[8:5]/5,,,5,,C,,,,
{8}8h[4:2]/4,,,,C,,,1h[8:5]/5,
{16}E5,E4,E3,E2,E1,E8,E7,E6,E5,E4,E3,E2,E1,E8,E7,E6,
{8}2h[4:2],,,,B3,,,7h[8:5]/5,,,5,,B6/B7,,,,
{8}1h[4:2],,,,B2,,,8h[8:5]/5,,,6,,B7/B8,,,,
{8}2h[4:2],,1,,B3,,,7h[8:5]/5,,,6,,B8/B7,,,,
{8}1h[4:2],,2,,B3,,,8h[8:5]/5,,,6,,B7/B8,,,,
8-2-4-6-8-2-4-6-8b[2:7]/3-5-7-1-3[1:2],,,,,,,,,,,,,,,,,,,,,,,,,,,,,,,,
{16}7,,,6,5,,6,,4,5,3,,3,,,3,
4,,,3,4,,3,,5,4,6,,6,,,4,
7,5,6,5h[8:1],,8,1,,2,4,3,4h[8:1],,1,8,,
7,5,6,2,8,1,7,8,6,3,4,2,
{96}E1,B8/B1,Cf,B5/B4,E5,,,,,,,,,,,,,,,,,,,,
{16}1h[4:1],,,,
{64}8x,E1,B1,B2,
{16},,5h[4:1],,6h[16:3],,,
{64}8x,E8,B7,B6,
{16},,4h[4:1],,3h[16:3],,,
{64}8x,E1,B1,B2,
{16},,5h[4:1],,6h[16:3],,,
{64}8x,E1,B1,B2,
{16},,,
{16}8h[4:1],,,,
{64}1x,E1,B8,B7,
{16},,4h[4:1],,3h[16:3],,,
{64}1x,E2,B2,B3,
{16},,5h[4:1],,6h[16:3],,,
{64}1x,E1,B8,B7,
{16},,4h[4:1],,3h[16:3],,,
E8,E6,E2,E4,
{16}5h[4:1],,,,
{64}7,E8,B8,B1,
{16},,4h[4:1],,3h[16:3],,,
{64}2,E2,B1,B8,
{16},,5h[4:1],,6h[16:3],,,
{64}7,E8,B8,B1,
{16},,4h[4:1],,3h[16:3],,,
{64}2,E2,B1,B8,
{16},,,
{8}
5/3,,5/3,6h[4:1],,3h[4:1],,4h[8:1],
{16}
1h[8:1],,3,4,,6,5,,2,1,2,8,3,7,4,6,
3h[4:1],,,,
{64}A1,D1,A8,D8,
{16},,5,,6,6h[8:1],,
{64}A8,D1,A1,D2,
{16},,4,,3,3h[8:1],,
{64}A1,D1,A8,D8,
{16},,5,,6,6h[8:1],,
{64}A8,D1,A1,D2,
{16},,,7h[4:1],,,,
{64}A5,D5,A4,D4,
{16},,1,,2,2h[8:1],,
{64}A4,D5,A5,D6,
{16},,8,,7,7h[8:1],,
{64}A5,D5,A4,D4,
{16},,1,,2,2h[8:1],,
{64}A4,D5,A5,D6,
{16},,,6h[4:1],,,,
{64}B2,B3,B4,E5,
{16},,1,,2,2h[8:1],,
{64}B7,B6,B5,E5,
{16},,8,,7,7h[8:1],,
{64}B2,B3,B4,E5,
{16},,1,,3,3h[8:1],,
{64}B7,B6,B5,E5,
{16},,,
1/5h[4:1],,,,
{64}E2,B2,B3,B4,
{16},,7,,7,7/4h[8:1],,
{64}E8,B8,B1,B2,
{16},,
3,4,,1,2,,,5/7,,2,4,,8,1,7,6,5/4,,,
3h[4:1],,,,1,4,8,5,7,6,8,1,4,3,
1h[16:3],,,3h[16:3],,,5h[16:3],,,6h[16:3],,,7,,5,,
{24}
A2,E3,E4,A8,E8,E7,A1,E2,E3,A6,E6,E5,
{16}2,4,3,3,6,5,7,7h[16:3],,,8,,7,,2,1h[16:3],,,3,,,1-4-8-3[2:1],,,
,,,,,,,,,,7,,6/5,,5/4h[8:1],,
,,,6h[16:7]/5,,,7,,,,8,,1h[4:1],,8h[8:1],,
,,7,,,,4h[2:1]/6,,,,3,,2,,1v8>3[16:12],,,,,,,,,7^4[16:3],,
,,,,,,,1/7,,
{24}6x,5x,4x,6x,5x,4x,6x,5x,4x,6x,5x,4x,6x,5x,4x,6x,5x,4x,6x,5x,4x,
{16}3hx[16:3],,,4h[16:3],,,5h[16:4],,,,6h[16:4],,,,1b,,,
2,3,4,7,6,5,3,4,5,6,5,4,3,4,5,6,,7,,8,,1,,,,7/5,,6/4,,5/3,,,,2,,,,7,,,8,,,5,,,3>6[8:12],
,,E8,,B8,,B4,,E4,,,C,,,E1,E5,Ch[1:1],,,,,,,,,,,,,,,,
1,,6,5,,3,4,2,7,5,8,3,
4-1b[8:1]/5-8b[8:1],45,45,4>1-6>3-8[8:29]/5<8-3<6-1[8:29],
{1},,,,
{8}1>4-7^2-5-8[8:28]/8<5-2^7-4-1[8:28],1/8,,,,,,,
{1},,,
{16}4/7,,,6,5,,6/5,,4/7,,,6,5,,6/5,,4/7,,,6,5,,6/5,,4/7,,4/7,,6/3,,6/3,,
{16}5/2,,,3,4,,3/4,,5/2,,,3,4,,3/4,,5/2,,,3,4,,3/4,,5/2,,5/2,,3/6,,3/6,,
7,5,7,5,7,6,7,,2,4,2,4,2,3,2,,6,5,6,5,6,6,6,,3,4,3,4,3,3,3,,
8,4,8,4,8,5,8,6,8,7,8,1,8,2,8,3,8,4,8,4,1,4,2,4,3,4,5,4,
{32}
4/5,36,72,18,,,,,
{1},
{16}4h[4:1],,,,5,,4h[4:1],,,,5,,4,,,,
{64}7-4[8:1],E8,B8,B1,E2,,,,{16}
4,,7,,,3,,2,4,,
{64}
5/E2,E3,E4,E5,
{16},,6,,7,5,,{64}4/E8,E7,E6,E5,
{16},,3,,2,4,,{64}5/E2,E3,E4,E5,
{16},,,
{64}2-5[8:1],E2,B1,B8,E8,,,,{16}
5,,2,,,6,,8,7,,
{64}
3/E7,E8,E1,E2,
{16},,3,,1,2,,{64}6/E3,E2,E1,E8,
{16},,6,,8,7,,{64}3/E7,E8,E1,E2,
{16},,,
{64}6-1[8:1],E6,B5,B4,E4,,,,{16}
1,,6,,,2,,3,1,,
{64}
8/E4,E3,E2,E1,
{16},,7,,6,8,,{64}1/E6,E7,E8,E1,
{16},,2,,3,1,,{64}8/E4,E3,E2,E1,
{16},,,
{64}3-8[8:1],E4,B4,B5,E6,,,,{16}
8,,3,,,7,,5,6,,
{64}
2/E7,E6,E5,E4,
{16},,2,,4,3,,{64}7/E3,E4,E5,E6,
{16},,7,,5,6,,{64}2/E7,E6,E5,E4,
{16},,,
2,1,2,1,3,8,4,7,5,6,4,5,3,4,3,4,2,5,1,6,8V24[8:3],7,1,8,
,,B4,,B6,,B8,,
7,8,7,8,6,1,5,2,4,3,5,4,6,5,6,5,7,4,8,3,1V75[8:3],2,8,1,
,,B5,,B3,,1x-4[8:1],,
,,7q3[8:1],,,,6^1[8:1],,,,2p6[8:1],,,,5^8[8:1],,,,1x,2x,,,3-6[8:1],,,,7,,,,
8-4[8:1],,,,2^7[8:1],,,,6-1[8:1],,,,2v5[8:1],,,,1,,
,,8,7,,1,2,,7,4,,4,{12}5,3/6,36,
{96}E5,B5/B4,Cf,B8/B1,E1,,,,,,,,,,,,,,,,,,,,{8},,,,,,{8},,,,,E6,E5,E4,,,,,,,,,,,,,,E8,E1,E2,,E7,,E3,,E6,,E4,,,,,,,,
E3,,E8,,E4,,E7,,
{64}
E5,B4,B3,E3,E
