&title=WORN OUT TAPES
&artist=unbeatable
&first=-0.045
&des=Poke
&des_5=Poke
&lv_5=13+
&inote_5=(149){4},,,,,,,,,,,1s5[32:3],
{1}8x/1x>1[4:5],
{4},,,5,
4h[1:1]/B5,B6,B7,6,
7h[1:1],B6,B5,B4,
3h[1:1],4,5,6,
6h[1:1],5,4,3,
3h[1:1],7,6,5,
4,B6/B5,5,B3/B4,
{8}2/7,6,5,4,{16}2,1,{8}2,3/6,2/7,
{4}8qq5[4:1]/1pp4[4:1],,,7b/2b,
{8}5,{16}3,4,{8}3,4/5,{16}6,5,{8}6,5,4,
3,{16}2,1,,7,{8}8,{16}1/8,7,6,5,4/8,1,2,3,
{8}4/7,{16}5,6,{8}5,5/4,{16}3,4,{8}3,4,5/6,
5,{16}4,5,,3,{8}4,2/1,{16}1,8,,8,{8}7,
5/6,{16}4,5,{8}4,3,{16}2,1,{8}2,3,4,
5/6,{16}7,8,,2,{8}1,3/4,{16}4,5,,5,{8}6,
7/5,{16}1,8,{8}1,2/4,{16}3,4,{8}2,1,8,
{16}7/5,,,6/4,,,{8}2/5,{16},4/1,,,{8}8/7,6/4,
{1}5<2[4:7],
{4},,,3V57[1:2],
{1}C,
{4},,,8V64[1:2],
{1}C,
{4},,,2<6[1:2],
{1}C,
{4},,,,B3,
{8}B6,B5,,3,{4}3/4,
{8}B3,B4,,B7/B6,B5,B4,{4}3,
B2,{8}B3,B4,,B6,{4}4/3,
{8}C,B6,,B3,B5,B4,{4}5/3,
{2}6h[8:3]/5h[4:1],{4}3,{8}4,5,
,6h[8:3],,,{4}3,2>5[2:1],
2,5<8[2:1],,8>2pp5[16:13],
{8},,,,,,,,5h[8:3],
6h[2:1],,,,,,,3h[8:3],
4h[2:1],,,,,,,2h[8:3],
1h[2:1],,,,,,,7h[8:1],
8,,7,,6/4,,B6,
5,4,,B5,4,3,,B4,
3,2,,E1,8,7,6,5,
4,5/4,4,6/4,4,7/4,4,8/4,
{16}7/6,,,5/4,,,{8}3/2,{16},1/8,,,{4}7b/2b,
{16}8,1,2,3,{8}7/4,{16}1-5[16:1],7,{8}1-6[16:1],8,{4}1,
{16}1,8,7,6,{8}2/5,{16}1-5[32:3],2,{8}8-6[32:3],1,{4}8,
{16}2-5[32:3],3,1,8,{8}2/7,{16}6,6,{8}2-5[32:3],1,{4}2/8,
{16}8,7,6/3,2,{8}8-5[8:1],8-4[32:3],{2}8>4[8:1],
{8}6/5,{16}3,4,{8}2,{16}8,7,5,4,3,2,7-3[16:1],8,{8}7,
7-4[16:1],{16}1,1,{8}7/2,{16}8,8,2,3,4,5,{8}6/8,1,
{16}8,2,7,3,{8}6,{16}3,6,2,7,{8}1,{4}8/2,
{2}B8/E8/B7/Cfh[2:1],B7/B6/B2/B3/E3/E7,
{16}3,4,3,2,5/1,6,7,8,3-7[32:3],4,2,1h[16:3],{4}3,
{16}4,5,3,6,7-3[8:1],1,8,6,{4}7/1-5[32:3],1/8,
{16}1-5[32:3],8,1,7,{8}1,{16}8,8,2-6[32:3],7,{8}1,{4}2/8,
{16}1-5[32:3],8,1,7,{8}1,{16}8,8,1,7,{8}2/8,{4}3bh[8:1]/7bh[8:1],
{8}6/5,{16}3,4,{8}2,{16}8,7,1,6,5,7,{4}2/1,
{8}4,{16}3/7,8,{8}2,{16}6/5,7,8/1-5[32:3],3,4,3,{4}1/7,
{16}1-5[32:3],8,1,7,{8}1,{16}8,8,2-6[32:3],7,{8}1,{4}2/8,
{16}7-3[32:3],7,1,1,{8}7/2,{16}8-4[32:3],8,2,2,{8}8,5bx<8v3q7[8:29]/3bx>8v5p1[8:29],6b/2b,
{1}B3/B5/A5/D5/A4/D4/A3/B4f,
,,,{16}B7,
,,B6,,,{8}B5,B8,C,{4}B4,
{16},,,,,,,,,,,,,,,,5h[8:3],
,,4,,,{8}3,6,7,{4}8,
{16}5h[8:3],,,4,,,{8}3,6,4,{4}7/5,
2-4[32:3],2/8,{8}6-4[32:3],7,{4}6/8,
8-6[32:3],8/2,{8}8-2[32:3],7,{4}8/6,
{16}8-4[16:1],7,,,{4}8/6,{8}1-5[16:1],7,{4}1,
{16}1-5[16:1],2,,,{4}1/3,{8}1/7-3[32:3],8,{4}7/2,
2h[16:3],{8}5-3[32:3],6,{4}7/5,{16}4>8[4:1],5,4,5,
{4}4/8<4[4:1],4,8,6/5,
{16}4/5,,,1,{8}2,3/4,{16}8,,,2,{8}4,3,
{16}6/4,,,5/7,,,{8}6,{4}1>4[32:3],1/7,
5/6h[4:5],C/B4/B3/B2,7,C/B8/B7/B6,
5,C/B4/B3/B2,3/5h[4:1],4,
6/7h[4:5],E4/B3/B4,1,B1/B2/E2,
5,B5/B4/E5,8<1[1:1],8,
{1}8h[1:1],
{16}2,,,3,{8}4,6,{4}5,4/3,
{1}7h[4:3]/1h[4:3],
{16}B6,,,B5,,,{8}C,B2,B3,{4}B4,
{8}8h[8:1],1>4[8:3],,1/7,,,,,1h[8:1],
8<5[8:3],,8/2,,,,,8h[8:1],
1>4[8:3],,1/7,,8h[8:1],,,1h[8:1],
8<5[8:3],,8/2,,1,,8h[8:1],
1,5/8,,1h[8:1],8,4/1,,8,
1/7,8/6,,1,8/2,1/3,2/4,5/6,
5,{16}7,7,{8}6,8,7,{16}2,2,{8}3,5,
{16}8,7,8,7,8,7,8,7,{8}1/3,7/5,{4}Cf/B2/B6,
{16}4,5,4,3,6/2,7,8,1,3-7[32:3],4,2,1h[16:3],{4}3,
{16}4,5,3,6,7-3[8:1],1,8,6,{4}7/8-4[32:3],1/8,
{16}1-5[32:3],8,1,7,{8}1,{16}8,8,2-6[32:3],7,{8}1,{4}2/8,
{16}1-5[32:3],8,1,7,{8}1,{16}8,8,1,7,{8}2/8,{32}7b/3b,,,4b/6b,,,{16}3b/7b,
{8}8/2,{16}3,4,{8}2,{16}8,7,1,6,5,7,{8}2/1,4,
5/2,{16}3,3,{8}4,{16}6,6,8/1-5[32:3],3,{8}3,{4}1/7,
{16}1-5[32:3],8,1,7,{8}1,{16}8,8,2-6[32:3],7,{8}1,{4}2/8,
{16}1/2,1/2,7/8,7/8,{8}6/4,{16}3b,4b,{8}3b,4b,3b/5b,2b/6b/B6/B7/B5/B1/B2/B3,
E
