&title=OUR SHIP
&artist=FELT
&first=0
&des=UNKNOWN
&lv_4=10
&lv_5=13+
&lv_6=13
&inote_5=(144)
{1},
1p4[8:3]*>1[4:4],
1q6[8:5]*>1[4:4],
1>1[4:4]*qq4[4:6],,
8q5[8:3]*<8[4:4],
8p3[8:5]*<8[4:4],
8<3[4:3]*p2[4:3],
{16}
,,1,,,1h[16:1],,,{2}2v3[8:1]/8v7[8:1],
{16}
1h[4:2],,,,5,,,,7,,7,5,,3,4,3,
6^1[8:1],,5,,4,,3q5[8:3],3,,,6h[4:1],,,,,,
7h[4:1],,3,,2^5[8:1],,1,,8-4[8:1],,,,3,,2h[4:1],,
,,6,,7^4[8:1],,8,,1,,2,,35,,6,,
8h[4:2],,,,3,,,,2,,4,,6,,7,8,
7^4[8:1],,1,,2,,3,,3^8[16:3],,1^6[16:3],,7^4[16:3],,5>7[16:6],,
,,,,,,5,,6^1[16:3],,8^3[16:3],,2^5[16:3],,4<2[16:6],,
,,,,,,,,4,,5b/6b,,6b/7b,,,,
8^5[8:1],,1,,2h[4:1],,,,4,,6,5,,4,5,4,
6,,5,,6,4,5,4,6<1[8:1],,3,3,,,,,
3h[4:1],,7,,6^3[8:1],,6,,2-5[8:1],,,,6,,7h[4:1],,
,,2,,3^8[8:1],,4,,5,,6,,35,,6,,
5^8[8:1],,4,,3h[4:1],,,,1,,7,8,,1,8,1,
{8}
7^4[8:1],8,1,2,3^1[8:1],1^7[8:1],7^5[8:1],5p7[4:1],
,7p1[4:1],,1>5[4:1],,7-3[8:1],8,7>6[8:3],
,,,,,7,56,45,
3>7[4:1]/4,,7q4[4:1],6,,5,6,7,
6<2[4:1],,2p5[4:1],3,,4,3,2,
1h[8:3],6,7,8<4[8:3],,4,3,2,
1h[4:1],,,,3,5,4,6,
87,7,76,6,65,5,54,4,
34,34,25,25,16,16,87,6,
45,2,45,7,34,1,35,1b^4[8:1]/7b^4[8:1],
,1b/7b,,{16}4,5,4,,5-1[8:1],,2-5[8:1],,5-8[8:1]*^2[8:1],,
{8}
2b^7[8:1],,,,8-4[8:1],3-8[8:1],8-5[8:1]*^3[8:1],3^6[8:1],
,,,3,6-8[12:1],1-5[8:1],6,1,
8-6[8:1],4-1[8:1],8-5[8:1],4-2[8:1],8-4[8:1],4<3[8:3],,1h[8:3],
{8},,,
{16}4-1[8:1],2,5,,46,,8-3[8:1]*-5[8:1],,7,,
8,,,,8-3[8:1]/1,,7,,68,,5,5,,3,4,2,
7-3[8:1],,4-8[8:1],,7,,4,,5,,6,5,,5,7,,
4h[8:1],,1,3,1h[8:1],,4,8,5p1[8:1],,5,,8-5[8:1],,8,,
2,,3,2,1/8,,7,5,6,2,4,3,6,5,7,5,
{8}
7-4[8:1],4^7[8:1]*-1[8:1],1^4[8:1]/7,,,8,12,3,
2-5[8:1],5^2[8:1]*-8[8:1],8^5[8:1]/2,,,1,24,5,
1-5[8:1],6-3[8:1],1-4[8:1],6-1[8:1],1^6[8:1],6p3[8:3],3,2h[8:3],
,,,{16}8-5[8:1],7,1,,82,,4-7[8:1]*-8[8:1],,3,,
{8}
4b>5[8:3],,6,5>6[8:3],,7,6>7[8:3],5,
,7,6,5-1[8:1],4,5^8[8:1],3,5pp4[8:3],
,,3,3-7[8:1]*-8[8:1],,3,,1q5[8:1]/5q1[8:1],
,1^6[8:1]/5^2[8:1],,15,,2-5[8:1]/6-1[8:1],15,2bp7[8:29]/6bp3[8:29],
{1},,,,
{4}
4h[8:1]/5,4h[8:1]/5,4h[8:1]/5,4h[8:1]/5,
4h[8:1]/6,4h[8:1]/6,4h[8:1]/6,4h[8:1]/6,
4h[8:1]/7,4h[8:1]/7,4h[8:1]/8,4h[8:1]/8,
4h[8:1]/1,4h[8:1]/1,4h[8:1]/2,4h[8:1]/2,
{8}
1^7[8:1],1,2,2,8^6[8:1],8,1,1,
7^5[8:1],7,8,8,6^4[8:1],6,7,7,
1^4[8:1],8,7,6,5^8[8:1],4,3,{16}2,3,
{8}
4^1[8:1]/7^4[8:1],8,47,,5^8[8:1]/2^5[8:1],1,52,,
2-5[8:1]/1,1h[8:1]/2,,
{16}
7,7,5-2[8:1],,6h[8:1]/5,,,,7,7,
5,6,4,5,3,,5,4,5-1[8:1],,4h[8:1]/5,,,,2,,
7-4[8:1]/8,,8h[8:1]/7,,,,2,2,4-7[8:1],,3h[8:1]/4,,,,2,2,
3,3,4,4,5,5,6,6,7-4[8:1],,8h[8:1]/7,,,,1,,
3v8[8:1]/4,,4h[8:1]/3,,,,7,7,1v4[8:1],,8h[8:1]/1,,,,6,6,
5,7,4,8,3,,2,1,2v5[8:1],,1h[8:1]/2,,,,7,,
6v1[8:1]/5,,5h[8:1]/6,,,,2,2,8v5[8:1],,1h[8:1]/8,,,,2qq3[8:5],3,
{1}
4pp3[4:2],6>7[4:3],5>6[4:3],4>5[4:3],3>4[4:3],2<3[4:3]*p6[16:7],1<4[4:2]*p4[4:2],
{16}
8b,,6,5,6,,1b,,3,4,3,,18,,4b-1[8:1]/5b-8[8:1],,
,,4b/5b,,,,3,4,3,,{8}5^7[8:1],2-5[8:1],5q1[8:1]*^2[8:1],
2b^7[8:1],,,,8^6[8:1],3-8[8:1],8p4[8:1]*^3[8:1],3^6[8:1],
,,,3,1-5[12:1],7-4[8:1],1-3[8:1],7,
1-5[8:1],4-7[8:1],1-3[8:1],4,1-5[8:1],5<4[8:3],,8h[8:3],
,,,{16}6q2[8:1],5,7,,46,,4-1[8:1]*-7[8:1],,3,,
{8}
4,,45,6V84[4:1],5,4,3,2-6[8:1],
{16}
1,,2,,8,,7,5,6V48[4:1],,5,,4,,3>5[8:3],,
{8}
,,5>7[8:3],4h[8:2],,,,4-8[8:1],
,1-5[8:1],,{16}6,,6,7,8,,2,1,3,1,
{8}
2V48[4:1],8,7,6<4[8:3],,3,4<8[8:2],5h[8:3],
,,,{16}3,4,3,,35,,46,,
{8}
5-3[8:1]/7,4,8-4[8:1],7,3-1[8:1],2,4-8[8:1],5,
1b-5[8:1],,1b-4[8:1]*-6[8:1],,1b,,1^4[8:1]/5^8[8:1],2,
1bw5[4:4]/5,,,,,,,,
