&title=Solstånd
&artist=Rigel Theatre
&first=0.03
&des=wzf
&lv_5=13+
&inote_5=(136)
{1},
{8},,,,,8,7,6,
{32}5hb[4:3]/E4,E3,E2,,{16},,,,,,,,,,,,,,
{32}2hb[4:3]/E8,E7,E6,,{16},,,,,,,,,,,,,,
{32}8hb[4:1]/E6,E5,E4,,{16},,,,,,{32}7hb[4:1]/E5,E4,E3,,{16},,,,,,
{32}6hb[4:1]/E4,E3,E2,,{16},,2x,3x,4x,5x,6hx[8:3],,,,7,,8,,
{8}1<6[4:1]/5,,6q3[4:1],,3>8[4:1],,4,4,
{16}5h[8:3],,,8<5[4:1],8,,2,,2,,,,1,,2,,
{8}3/4h[4:1],,3,52,6h[8:1]/1h[8:1],,78,81,
{16}2,1,2,1,2,1,3,8,3,8,3,8,4,7,4,7,
{8}5b/6b,6h[8:1],E5/B5/B4,3x,72,1h[8:1],E8/B8/B7,6xh[8:1],
{24}2x,3x,4xq1<8q5[8:4],{16},,,,,,7xh[8:1],,,,6xh[8:1],,,,
{8}26,3h[8:1],E5/B4/B5,6x,27,8h[8:1],E2/B1/B2,3xh[8:4],
{8}2,8,6,4h[8:1],{32}1,2,3,,,5h[32:3],,,1-5[12:1],8,7,,,4h[32:211],,,
{32}Cf,,,,,,,,,,,,,,,,D8,E8,,,,,,,,,,,,,,,
{32}D2,E2,,,,,,,,,,,,,,,D7,E7,,,,,,,,,,,,,,,
{32}D3,E3,,,,,,,,,,,,,,,D6,E6,,,,,,,,,,,,,,,
{32}D4,E4,,,,,,,,,,,,,,,D5,E5,B5/B4,,,,,,,,,,,,,,
{32}A8,B8,C,,,,,,,,,,,,,,A7,B7,C,,,,,,,,,,,,,,
{32}A1,B1,C,,,,,,,,,,,,,,A6,B6,C,,,,,,,,,,,,,,
{32}A2,B2,C,,,,,,,,,,,,,,A5,B5,C,,,,,,,,,,,,,,
{8}3h[8:3]/7,2,2,6bh[8:3],7-2[8:1],7,7b,,
{8}5<8[8:1]/1>5v3b[8:2],,51,,1-6[8:1],,1,2,
{8}2>5[8:1],2,6<1[8:1],6,{48}E5,E4,E3,E2,,,{8},2hx[8:1],3hx[8:1],
{8}4>8[8:2],,8<4[8:2],,4p3>1b[8:2],,C,,
{48}E8,E7,E6,{16}E5,2,,34,,56,,1h[4:1]/8,,7b,,7b,,,,
{8}8<6p4b[8:2]/4>1[8:1],,48,,2-5[8:1],,2,8,
{8}1<6[8:1],,2,1,8>3[8:1],,6,7,
{8}8h[8:1]/4h[8:1],,7h[8:1]/3h[8:1],,84,37,26,,
{48}1,2,3,{16}4h[16:5],5,,3,,5,,3,6,4,5,3h[8:1],,2,3,
{16}4-8[8:1],,5,,4,,6,,2,7,1,8,2b-4[8:1]*-5[8:1],,,,
{4}2-6[8:1],7-3b[8:1]/2,7-1[8:1]*-2[8:1]/3,7,
{8}43,E2,4/3>7[4:1],E6,43,,6b-4[8:1]*-2[8:1],,
{4}6-1[8:1],6/3-5b[8:1],3-6[8:1]*-8[8:1]/5,3,
{8}1v2[4:1]/5v6b[4:1],,,,,1b/5b,1b-3[8:1]*-4[8:1]/5b,,
{4}1-5[8:1],1/6-2b[8:1],6-8[8:1]*-1[8:1]/2,6,
{8}2-5[8:1],2,7p4[8:2],7,4,,,,
{8}8bxxh[8:7]/4bx,,,4,4,,3,3,
{8}2b/7b,2-5[8:1],2,2b/7,7-4[8:1],7,7b/1,1>4[8:1]*<6[8:1],
{8}1,1b,,5b,{16}2,5,3,8,4,6,3,7,
{8}2>4[8:1]/1h[4:1],,2,1,5>3[8:1]/6h[4:1],,5,6>5p4[8:3],
{16}E2/B2/B1,,,4,4>7[8:2],,1,,1h[8:1],,,,4,,3<4q5[8:3],,
{16}E8/B7/B8,,,5,5<2[8:2],,8,,8h[8:1],,,,7x,,8x,,
{16}1/2h[8:3],,,,1-4-1b[8:2],8,7,6,51,,6b,,6b-3[8:1]*-1[8:1],,,,
{16}6-2[8:1],,,,6/8-4[8:1]*-3[8:1],,,,8-5[8:1],,,,8/1-4[8:1],,2,,
{16}1<5[8:2],,,1,1,,2,,2h[4:1],,,,4,,54,,
{8}6<6[4:6]/5h[4:1],,,3,4,5,6x<2b[4:3],,
{1}6bx,
{8}7<5[8:1]/8h[4:1],,7,8,4<6[8:1]/3h[4:1],,4,3>2q5[8:3],
{16}E8/B7/B8,,,5,5<2[8:2],,8,,8h[8:1],,,,5,,6<7p4[8:3],,
{16}E2/B2/B1,,,4,4>7[8:2],,1,,1h[8:1],,,,2x,,1x,,
{16}8/7h[8:3],,,,8-5-8b[8:2],1,2,3,48,,3b,,3b-6[8:1]*-5[8:1],,,,
{16}3-7[8:1],,,,3/8-3[8:1]*-5[8:1],,,,8-4[8:1],,,,8/7-3[8:1],,6,,
{16}7>4[8:2]/8,,,7,7,,6,,6h[4:1],,,,5,,45,,
{8}3/4h[8:3],,,3,8h[8:1]/7h[8:1],,16,25,
{24}3,4,3,4,3,4,3,4,3,4,3,4,3,4,3,4,3,4,3,4,3,4,3,4,
{8}3bx>6b[4:2],,C,,E5,E4,E3,,
{8}6x<3[4:2],,C,,E5,E6,E7,,
{8}3x>1v8<6b[4:2],,C,,E5,E4,E3,,
{8}6x<8v1>3[4:2],,C,,E5,E6,E7,,
{16}4h[4:2],,,,,,5,6,7>2[8:3],,,,,,,,
{16},,,,,,3,4,3h[4:1],,,,4h[8:1],,5h[8:1],,
{16}6,5,6p3[8:5],,,,,,1xh[8:4],,,,,,,,
{8},,E8,E7,E6,,5,5,
{16}3,4,3q6[8:5],,,,,,5hx[8:4],,,,,,,,
{16},,,,1,8,1h[8:1],,5h[4:1],,,,4,,45,,
{16}6,3,6-4p1b[8:7]*>1[8:7],,,,,,,,,,,,,,
{16},,,,,,,,E2/A1/A2/B1/B2/D2,,,E8/A8/A7/B8/B7/D8,,,3x/6x,,
{64}1xv3>2v4<5v7<6v8[4:13]/8x,E1,B1/B8,Cf,B5/B4,E5,,,{8},,,,,,,
{1},
{1},
{1},
{16}3qq8[4:2]/4,,,7,3,,7-4[8:1],,7,,,,,,,,
{16}6pp1[4:2]/5,,,2,6,,2-5[8:1],,2,,,,,,,,
{8}15,,48,,73,62,51,,
{16}3,3,5,5,4,4,6,6,4,5,4,6,3,6,2,6,
{8}1>4[8:1]/5h[4:1],,1,8,5>2[8:1]/1h[4:1],,5,1<7p4[8:3],
{16}E3/B2/B3,,,4,4<7[16:3],,2,,2h[8:1],,,,1,,8>2q5[8:3],,
{16}E7/B7/B6,,,5,5>2[16:3],,7,,7h[8:1],,,,7x,,8x/1x,,
{16}1/2h[8:3],,,,1>4>1b[8:2],8,7,6,51,,6b,,6b-3[8:1]*-4[8:1],,,,
{16}6-2[8:1],,,,6/1-7[8:1]*-6[8:1],,,,1-5[8:1],,,,1/2-6[8:1],,3,,
{16}2>7[8:2]/1,,,2,2,,1,,1h[4:1],,,,5,,6,,
{8}7h[8:2]/1h[4:1],,,37,47,,57,6/7h[4:1],
{32}1,2,3,4,5,6,7,8,1,2,3,4,{24}5x,6x,7x,8x,1x,2x,3x,4x,5x,{16}6x,7x,8x,1x,
{48}2xp8[4:14]/A7f,D7,A6,D6,A5,D5,,,,,,,{8},,,,,,
{16},,,,,,E3,E4,E5,,,,1x,,,2x,
{16},{24}3x,4x,5x,{16},,,,,,,{24}E6,E5,E4,
