&title=Яe-son D'être
&artist=石見; とおる
&first=0
&des=おにねこ
&lv_5=14+
&inote_5=(183)
{1},,
{4}
A6,A5,E6,E5,A4,
E4,A4,A3,A4,E4,A5,A4,E5,1h[8:7],,4h[8:3],,
{16}
1b,4,1,4,1,4,1,4,1,4,1,4,1,4,3b,6,
3,6,3,6,3,6,3,6,5b,8,5,8,5,8,5,8,
5,8,5,8,5,8,5,8,2b,8,2,8,2,8,2,8,
2,8,2,3b,2,3,2,3,2,3,2,3,
{16}2,3,2,3,2,3,2,3,
{24}2b,D2,A1,D1,A8,D8,A7,D7,,
5b,D5,A4,D4,A3,D3,A2,D2,,
{16}8b,,,,
25,,3,,74,,6,,
2>5[8:1]/5,,1,,,,,,
7,,6,,25,,3,,
6>3[8:1],5,7,5,6,,,,
1h[8:1],,3,2h[8:1],,7,3h[8:1],,
1,4h[8:1],,8,5h[8:2],,,,6b,,5b,,4b,,3b,,
2b/7,,5/1b,,4/8bh[8:3],,,,A3,A4,A5,A6,B3,B4,B5,B6,
{8}
,,,,
6>3[8:3],,4>1[8:3],,2<7[8:3],,8<5[8:3],,,,,,
2>5[8:3],,4<7[8:3],,6<1[8:3],,8>3[8:3],,,,,,
7<3[16:5],,4>8[16:5],,1<5[16:5],,6>2[16:5],,,,,,
1>5[16:5],,4<8[16:5],,7>3[16:5],,2>6[16:5],,,,,,
8qq5[8:5],,5,,2pp5[8:5],,,,,,,,
6h[8:2],,5h[8:2],,4h[8:2],,2h[8:2],,3h[8:2],,
4h[8:2],,6h[8:2],,5,6,
(165)
{16}7b/5b,,,2/4,3h[16:3],,,6h[16:3],5h[16:3],,,8h[16:3],3h[16:3],,,6,
1,,6,6,5,8,,3,4,,3,8,8qq1[32:9],,,,
(145)
{4}1/8bqq2>7b[16:17],,,,,,
{16}6,5,5,4,4,3,5,1,
(130)
{16}
6bh[8:1],,8h[8:1],,5b,3,8h[8:1],,3bh[8:1],,4,3,8b,5,6h[8:1],,
3bh[8:1],,1h[8:1],,4b,6,1h[8:1],,6bh[8:1],,5,6,1b-4b[8:1],4,3,,
{16}1b/8,,6,6,5b-2b[8:1],8,8,,5b,,6,6,3b-8b[8:1],4,4,,3b,,
{16}4-1[16:2],4,1b,6,6>3[16:2],,8b,,2,,2b,2,4,,
{16}
5b/3,,7-3[32:3]/4,,1/5b,1,7,,
4b,,2-6[32:3]/5,,8/4b,8,2,,5b,,
34,3,6,6,4,5,{24}3,4,3,6,5,6,3,4,2,6,5,7,
(120)
{48}1x,2,3,4h[48:6],,,,,,8x,1,2,3h[48:6],,,,,,
7x,8,1,2h[48:6],,,,,,6x,7,8,1,,,,,,
(130){16}3h[16:1],4h[16:1],5h[16:1],6h[16:1],7h[16:3],,,
6h[16:1],5h[16:1],4h[16:1],3h[8:1],,
,4,3,6,
7/4,5,6,2/5,4,3,8/4,5,7,
1/5,4,2b<3[8:6],,,,,
(145)
{8},,,,,,7-5-8[32:6],,5b,,2-4-1[32:6],1b/4b,,5,
{16}
8b,,71,,2,2,4,3,
6,5,7b,5b,,2b,4b,3,
7-5[32:3],5,7,5,
7-4[32:3],,4,4,7-3[32:3],,3,3,
7-2[32:3],2,2,,1h[8:2],,,,4h[8:1],,3,2/5h[8:1],,4,3/6h[8:1],,
{32}1,2,3,4,5,6,7,8,{32}1,2,3,4,5,6,7,8,
{16}1/6b>3b[32:3],,7,,8/6b,,1,,
6/2b>5b[32:3],,1,,8/2b,,7,,
2/6b>3b[32:3],,7,,8/6b,,1,1h[8:1],
,4,3b,3b,3b,3b,3b,3b,
(130)
{12}2h[12:3],,3,5h[12:3],,2,8h[12:3],,6,5h[12:3],,4,
{16}
3,,6h[8:1],,5h[8:1],,4<3[16:13],3>4[16:12],,,,,,,,,
,,,,,,,,,,34,,1b/6b,,,,
(145)
{16}
5/4h[16:4],,6h[16:3],,,4h[16:2],,6,
6h[16:4],,4h[16:3],,,6h[16:2],,4,
4h[16:4],,6h[16:3],,,4h[16:2],,6,
3h[16:7],,,,8h[16:3],,,,
(183)
{16}3b,8,3,7,3,6,3,5,
3,7,3,6,3,5,1b,4,
1,5,1,6,1,7,1,8,
3b,8,3,7,3,6,3,5,
3,7,3,6,3,5,3,4,
2b,5,2,6,2,7,2,8,
2,1,2,8b,3,8,4,8,
5,8,6,8,5,8,4,8,3,8,2,8,
{24}1b,2,3,4,5,6,7,8,1,
26,5,4,3,2,1,8,7,6,
{16}5b-8[8:1]/4b-1[8:1],,,,
54,,,,2>5[32:3]/7,,,,
7-3[32:3],,7,,1<6[32:3],,,,
1/5-1[32:3],,,,54,,3,,
3<6[8:1],4,2,4,3,,,,
8h[8:1],,6,7h[8:1],,3,6h[8:1],,
1,5h[8:1],,3,4h[8:2],,,,2b,,1b,,8b,,7b,,
6b,,{12}3b/5b,4,6,
7b/5b,,,
2b/4b,3,5,
6b/4b,5,7,
{16}6b/8b-4[8:20],,
(200)
{4},,,,,,,,,,,,
(167)
{16}1,,,,
3h[8:2],,,,
5h[32:7],,,,4h[8:2]`6,,,,
7h[32:7],,,,8h[8:2]`6,,5,,
4,,3h[8:1],,4,,2h[8:1],,
4,,1,82,37,,,6,
(158)
{8}5,7h[8:1],
(156)
{8}4h[8:1],2h[8:1],
(154)
{8}4h[8:1],6,
(149)
{64}4,5h[64:15]`3h[8:1],,,,,,,,,,,,,,,
(119)
{8}2h[8:2],,
(101)
{64}7b,8b,1b,2b,,,,,,,,,{16},,,,,,,
{64},3,,,,,,,
(129)
{16}5h[12:2],4,{48}3,,,2,,,
{12}6h[12:2],,8,
7h[12:2],5,5,
8h[12:2],,3,
//(150.86)
{16}3,4,2,4,3,7,5,6,
{16}3,
//(136)
{16}4,3,5,
{16}4,6,5,6,4,
(102)
{24}6x,5x,4x,5x,4x,3x,
(124)
{20}6b,4,6,3,5,
(120)
//{16}1x,7/E3,7/E4,7/E5,
(111)
{16}8x,2/E6,2/E5,2/E4,
(153)
{16}2,3,2,1,
(169)
{16}2,3,2,1,
(183)
{16}2,3,2,8,
(176)
{16}7,2,3,7,
//(191)
{16}6,3,4,
(187)
{16}8b,7,6,5,
(177)
{16}8,7,6,5h[128:58],
(195)
{16}
8,7,6,,4,3,2,1,
4,3,2,1,8,7,
(192)
{16}6,5,4,3,
(193)
{16}1b,2,3,4,
(196)
{16}
1,2,3,4h[128:60],
1,2,3,,5,6,
(194)
{16}7,8,5,6,
(201)
{16}7,8,1,2,
(205)
{16}3,4,5,6,7,
8b,
(202)
{16}7,6,5,4,3,2,1,8,
(191)
{16}4,3,2,1,8,7,6,{96}5,,,,,
(189)
{16}48,48,,37,
(177)
{16}37,,28,,
(186)
{16}1x,2,3,4,
(169)
{16}2x,3,4,5,
(134)
{16}3x,4,
(81)
{96}6,,,,,8,,,,,,,
(63)
{16}2<7[16:11],
