&title=巩金瓯(Hardcore)
&artist=Eroluy
&first=0
&des=DJQuagmire
&des_5=
&clock_count=4
&lv_5=14+
&inote_5=(232){4},,,,5/4,
2/7,{16}1,8,1,8,{4}1>8[1:2],
{48}1x/8x,{192}E1,,,Cf,,,{96}E8,{192},E2,,,B6,,,B3,,,{96}E5,{1},{4},,,{16},,{4}1h[4:3],
{8},,,,8,8,
{4}3h[4:1],5h[4:1],4h[8:1],{8}5,6,
{2}2h[4:1]/7h[4:1],{4}1h[4:1],{8}8,8,
1,2h[4:1],,5,{16}6h[16:3],,,4,{8}4,5,
{16}3h[16:7],,,,,,,6,{8}6,5,4q5[8:3],3,
{16}2h[4:1],,,,,,,2,{8}2,5,3,5,
{4}4/6h[2:1],4,4,3,
5/3h[2:1],6,7,8,
1/7q5[2:1],2,3,4,
5/1pp3[2:1],8,6,5,
{8}4/3,3,{4}3/6,{8}5/3,3,{4}4/3,
{8}2/7,2,{4}2/8,{8}6/2,2,{4}5/2,
{1}Ch[1:1],
{4}E3,E1,{16}E7,B6,B5,E5,E1,B1,B2,E3,
{4}3x/6xh[4:1],{8}5,4,7h[8:1],{16}3,8h[8:1],,4,{8}1h[4:1],
,3,5,7h[4:1],,6,4,2,
{4}1h[4:1],{8}6,3,5h[8:1],{16}4,6h[8:1],,5,{8}7h[8:5],
{16}E8,,,E7,,,{8}B5,{16}1xh[8:3],,,E3,,,{8}E4,
{4}5h[4:1],{8}3,4,3h[8:1],{16}5,2h[8:1],,4,{8}1h[4:1],
,7,5,4h[4:1],,6,5,2,
{16}1h[16:3],,,2,,,{8}3,{16}4,,,5,,,{8}6,
{16}8x/7x,,,1x/8x,,,{8}2x/1x,{16},2x/4x,,,{8}3x/5x,4x/6x,
{4}7x/5xh[2:1],6,4,3,
2/4h[2:1],3,5,6,
2/7h[2:1],1,8,6,
5/3h[2:1],4,2,1,
{8}8/4,4,{4}4/B6,{8}5/2,5,{4}5/E1,
{16}3,4,3,4,2,5,2,5,1,6,1,6,{8}8,8,
{24}7,6,5,1b,,,{8}1b,{24}2,3,4,{8}8b,8b,{16}2,1,2,1-5b[16:3],
{2}2h[4:1],{8}4,{16}6x,4x,{4}8bx-4[8:1],
8/2-5[8:1],2/6-1[8:1],6/4-8[8:1],4/7-4[8:1],
7/1-4[8:1],1/6-1[8:1],6/2-5-2[8:3],2/8-5[8:1],
8b,1-4[8:1],1/4-8[8:1],7-4[8:1],
7/1-4[8:1],1/8<4[4:1],8/2,{8}2,{16}3,4,
{4}3>8[8:1],3/5-1[8:1],5/4-2[8:1],4/6<1[8:1],
6/5v2[8:1],5-8b[8:1],5,{8}2b,2b,
{4}7b-5[8:1]/3b-1[8:1],3/7,8x>3[8:1]/4x<7[8:1],4/8,
4xh[4:1],{8}8,7h[4:1],{16},,4x,6x,{8}2x,2x,
{4}2x-4[8:1],2/B5,8/2-8[8:1],2/B7,
6-4[8:1],6/B3,{8}8/6-8[8:1],1,2,3,
{4}4v1[8:1],4/E6,7v4[8:1],7/E2,
{8}3x/5x,4x/6x,7x/5x,2x/8xh[4:1],{16},,1,8,{8}2,{16}4,6,
{4}5-8[8:1],5/7,1-4[8:1],1/3,
2>5[8:1],2/4,7<4[8:1],7/5,
3h[2:1],4,6h[4:1],{8}5,{16}7,8,
{4}1h[4:3],,,4b-2[8:1],
4-8[8:1]/8-6[8:1],4/8,5-8[8:1]/1-3[8:1],5/1-5[8:1],
1>4[8:1],1<6[8:1],1-5[8:1],1/5x-2[8:1],
8-4[8:1],8-6[8:1]*-2[8:1],8,{8}3,4,
5,{16}7,8,{8}1,7/2h[4:1],,1,3,{16}8x,4x,
{4}7x>2[8:1],3/7,7-5[8:1],7/1,
2-4[8:1]/4x-8[8:1],2/4,7-5[8:1]/5-1[8:1],7/5<8[8:1],
2b-5[8:1],2-7[8:1],2V46-3b[8:3],2,
8-4[8:1],{8}8,3h[4:1],{16},,4,3,{8}4,5,
{4}6x-8[8:1],6/B1/E2/B2,6-4[8:1],6/B3/E4/B4,
2-8[8:1],2/B7/B8/E8,{8}4/2-4[8:1],5,6,7,
{4}8v5[8:1],8/E2/A2/B2,3v8[8:1],3/E6/B5/A5,
{16}1x,1x,{8}1x,2/8,7h[4:1]/3h[4:1],,,6,{16}4,8,
{4}1-4[8:1],1/3,8-5[8:1],8/6,
1>4[8:1],1/3,{8}8,8,8,7,
6bh[4:1]/5bh[4:1],,,8bh[4:1]/1bh[4:1],,,{4}4/3h[8:5],
4,{8}5,6,{4}7h[4:1],{16}3,7,3,7,
{4}E2,E1,E8,E7,
E6,E5,E4,E3,
E2/D2,E1/D1,E8/D8,E7/D7,
E6/D6,E4/D4,E2/D2,8b/1b-5[8:1],
8h[4:7]/A1f,E7,E6,E5,
E4,E3,E2,1,
{8}8,8,6,6,5,5,3,3,
1,1,{16}2,8,2,7,3,6,3,5,4xh,4xh,4xh,4xh,
{4}4x-1b[8:1],4bx-7b[8:1],3x/4b-2b[8:1],5x/4b-6b[8:1],
3x/4b-1b[8:1],5x/4b-8b[8:1],3x/4b,5x/1x>4b[8:1],
8x/1b<6b[8:1],2x/1b>4b[8:1],8x/1b<6b[8:1],2x/1b-5b[8:1],
1b,{8}6/4,6/4,,7/8,7/8,7/8,
{4}6x/8b-5b[8:1],1x/8b-2b[8:1],7x/8b-6b[8:1],1x/8b-3b[8:1],
7x/8b-5b[8:1],2x/8b-4b[8:1],7x/8b,3bx/5bx,
4h[8:3],{8}5,6h[4:1],5b,2b,{4}7-3[8:1]/1b-6[8:1],
1/7,8h[4:1],{16}5,4,3,2,{4}1b,
{8}1bx/7bx,1bx/7bx,{4}3bx/5bx,{8}3/5,6,6,3,
2,{16}7,8,{8}7,2/6,3-8-4[4:1],3,8,7,
{4}6,{8}5/6,3/4,2,2,{4}7h[8:1]/1h[8:1],
{16}2b/6b,,,4/1,,,{8}5/2h[4:1],,3,4,5,
{4}6h[4:1],{8}5,7,6/4,{16}3,5,,,{8}7,
2,{16}2,1,{8}3,7/4,6-1[8:1],6,2,{16}2,3,
{8}4,4,4/5,6/5,7,8,2/1,2/1,
{16}4x/3x,,,6x/5x,,,{8}7x/8x,{16},8x/2x,,,{8}1x/3x,2x/4x,
{1}5xh[4:15]/3bx<3V57V13b[2:7],
{4},,,,,,,,,,,,8h[8:1],
8h[8:1],1h[8:1],1h[8:1],
{8}2h[16:1]/8h[16:1],2h[16:1]/8h[16:1],1h[16:1]/7h[16:1],1h[16:1]/7h[16:1],6xh[16:1]/8xh[16:1],5xh[16:1]/7xh[16:1],4xh[16:1]/6xh[16:1],4xh[16:1]/2xh[16:1],
{4}1x-7[8:1]/3x-7[8:1],1x-5[8:1]/3x-5[8:1],1x/3xw7[8:1],3x,
5h[8:1]/1h[8:1],1h[8:1]/5h[8:1],{16}2,4,2,4,3b-8[8:1],3b,3b,3b,
{4}3b,{8}7/1,6/2,3h[8:1],{16}5,4h[8:1],,6,{8}5h[8:1],
7-5[8:1],5-1[8:1],7,2,2-8-4[4:1],8,2,7,
{4}6h[4:1],Cf,{16}4h[16:3],,,5,{8}3h[8:1],4,
{16}2,5,2,5,{8}2-5[8:1],5V31[4:1],2,8,{16}8,7,6,5,
{4}8/4-7[8:1],{8}4/1,2,3h[8:1],{16}7,4h[8:1],,8,{8}5,
{16}8,5,7,4,{8}6,{16}3,5,{8}2,1b,1b,1b,
{4}8h[4:1],{8}5,4,{4}3h[4:1],{8}8,7,
{16}6/5,,,4/3,,,{8}2/8,{16},7/1,,,{8}6/5,5/4,
{4}3-7[8:1],{8}3,5,{4}3-8[8:1]/4pp8[8:5],3,
3-1[8:1],3,7-4[8:1]/3v8[8:1],3b/7b,
2/6-2[8:1],{8}6,4,{4}6-1[8:1]/5qq1[2:1],6,
{8}8bxh[16:1],7bxh[16:1],6bx,5bx,1,2/8,7/3,{16}4x,6x,
{4}5x<8[8:1],{8}5,4,{16}3,,,1,{8}1,2/8,
{16}3,7,4,6,5,6,{8}5h[8:1],{16}8,5,7,4,{8}6,5/3,
{1}2qq5[4:3]/4qq7[4:3],
{16},,,8/6,,,{8}7/5,{16},6/4,,,{8}3,2,
{1}1h[1:1]/Cf,
6h[1:1],
{8}3h[4:3],,,,,8,8,7,
{2}6h[4:3],{4}4,{8}4,3,
{2}2h[2:1],8h[2:1],
4h[2:1],{4}5h[4:1],3,
{1}6h[1:2]/4h[1:2],
E
