&title=キャットラビング
&artist=香椎モイミ,可不
&first=-1.27
&des=
&des_3=
&des_4=
&des_5=
&des_6=Roastedfish
&lv_3=1
&lv_4=1
&lv_5=1
&lv_6=13
&inote_3=(163)
E
&inote_4=(163){4},,,,,,,,
E
&inote_5=(163){4},,,,,,,,
E
&inote_6=(163){4},{8},,,,,,,,,,,,,,A8/D1,
{16}E2,E3,{8}E4,D5/A4,E6,E7,1,8,
7/2,1,1,2,6>4[8:1],,,3,
2/7,8,8,7,3<5[8:1],,,8,
7/1,6,5,4,{4}2>4[8:1],{8}7,8,
{4}1h[8:1]/7h[8:1],8h[8:1]/2h[8:1],{2}1-5[8:1]/7-4[8:1],
{8}3/6,5,5,6,2<8[8:1],,,7,
6/3,4,4,3,7>1[8:1],,,2,
3/5,2,1,8,{4}6<8[8:1],{8}3,4,
{4}5h[8:1]/3h[8:1],2h[8:1]/4-6<2[16:7],{2}4,
{8}6,4v1b[8:1]/8v5[8:1],,4/8,,3-1[8:1],5,3,
8,6v3[8:1]/2v7b[8:1],,2/6,,5<8[8:1],3,5,
2,4v1b[8:1]/8v5[8:1],,8/4,,3,8x-6b[8:1],7,
8x-3[8:1],1,8x-4b[8:1],7,8x>6[4:1],1,{4}8x,
{8}1,2-5[8:1]/8-4b[8:1],,8/2,,1>4[8:1],7,1,
8,7-4[8:1]/1-5b[8:1],,7/1,,8<5[8:1],2,8,
{4}1h[8:1],1h[8:1]/7h[8:1],1h[8:1]/8h[8:1],{8}8-4[8:1],1-5[8:1],
8-6[8:1],1-3[8:1],8-4b[8:1],1,8b,,,C,
8/3,{16}2,1,{8}2>5[4:1],8,{4}2,{8}7,6/8h[4:1],
,7,6qq5[8:3],7,{4}6,7-3[4:1],
{8}8/7,1,2-4[8:1],{16}5,5,{8}2,1<6[4:1],2h[4:1],1,
,2,3,4,{4}5-8[8:1]*-2[8:1],B6/B4,
{8}1/6,{16}7,8,{8}7-4[4:1],1,{4}7,{8}2,3/1h[4:1],
,2,3pp4[8:3],2,{4}3,2-6[4:1],
{8}2/1,8,7-5[8:1],{16}4,4,{8}7,8>3[4:1],7h[4:1],8,
,7,6,5,{2}4qq2[8:1]*pp6[8:1],
{8}7/1h[8:1],8h[8:1],2h[8:1],{16}5,5h[16:9],,,{8}6,7,8,
1,2,3,4,{2}6V84[4:1]/5-1-3[4:1],
{8},1xh[16:3],7xh[16:3],4xh[8:1],{16}6,3,5,4,{24}E5,B5/B4,B6/B3,2x/E7/E3/7x>8v1>2b[8:5],{1},{16},{48},{4}3h[1:2],
1,6,{8}8,8,
,1,,E1,E8,E7,{4}E6,
6h[1:2],8,3,{8}1,2,
,8,,E1,E2,E3,{4}E4,
3h[4:1],1,6/3h[4:1],{8}2,8,
6h[4:1],1,,E1,6h[4:1]/E2,E3,{4}E4,
4h[8:1],8/4h[8:1],3/5h[8:1],{8}2/6,4/8s4b[4:1],
,8/4qq4[8:5]*pp4[8:5],,,,,,,,,{4}6h[4:1]/5>3-1[2:1],
,7,
{8}7,8<5[4:1],,8,,1,2,3,
4s8[8:3],5,{4}6h[4:1],{8},,8V63[2:1],8,
3,3,2,2,{4}1h[8:1],3/7,
5,3h[2:1]/4<6-8[2:1],{2}4,
{8}1v6[4:1],2,{4}1/3h[8:1],{8},1,3,2,
{4}6/5>3-1[2:1],5/8h[4:1],{8},,,8v3[4:1],
,6/8,,6,7,6,{4}1v6[8:1],
{8}1/7,8z4b[8:1],,2b>6[4:1],,2,{4}8v3[8:1],
{8}8/2,1s5b[8:1],,8b<4[4:1],,3,{4}2-6[8:1],
{8}2/8,7s3b[8:1],,4b,,2,1-6[8:1],8,
1-4b[8:1],2,1-5[8:1],8,1-3b[8:1],2,{4}1,
{8}2/4,3s7b[8:1],,5b<1[4:1],,5,{4}4-8[8:1],
{8}4/6,5s1b[8:1],,4b>8[4:1],,7,6,5,
3,3,3/4,2/5,1/6,8/7,8-4[8:1],7-3[8:1],
8-2[8:1],7-5[8:1],8-4b[8:1],7,{2}8b,
{4}5/7h[4:7],4,3,2,
B4/E5,E4/B3,E3/B2,B1/E2,
4/5h[4:7],6,7,8,
B5/E6,E7/B6,E8/B7,E1/B8,
5/3h[4:7],6,7,8,
B6/E6,E7/B7,E8/B8,B1/E1,
{8}8,7,6,5,{16}4,3,2,1,8,7,6,5,
{4}4,6/3,{8}7/2,C,{4}E1/B8/B1,
{8}7/8,B4/B3,2/1,B6/B5,{2}3h[4:1]/6h[8:1],
{4}4/3,6/5,8/7,1/2,
{8}2/4,3/5,4/6,5/7,{16}6,7,8,1,{32}2x,3,4,5,6,7,8,1,
{8}4b/2x,5,6-8[8:1],{16}4,4,{8}6,5qq5[8:3],6h[4:1],5,
,6,7,8,{4}1p5[8:1]/5p1[8:1],E1/E5,
{8}1/7,{16}8,2,{8}1-5[8:1],3,{4}1>4[8:1],{8}1b,7,
6,{16}1,7,{8}8-4[8:1],6,{4}8<5[8:1]*>3[8:1],8b-4[8:1],
8,{8}3-1[8:1],{16}4,4,{8}3,4<7[4:1],3h[8:1],4,
,3,2,1,{4}4-8[8:1]/8-4[8:1],C,
{8}2/7,1h[8:1],7h[8:1],{16}4,4h[16:13],,,{8}3,2,1,
8,7,6,5,{2}3V15[4:1]/4-8-6[4:1],
{8},8xh[8:1],2xh[8:1],5xh[8:1],{16}3,6,4,5,{8}4>1b[4:1],6,
{4}1v7b[4:1],7<4b[4:1],{2}4-8b[4:1],
{8}5h[1:1],6,4,7,3,8,2,1,
,7/2,{4}5-2[8:1]/4-7[8:1],5b/4b,A7/D8/D2/A2/B8/B1,
E
